Guest User

Untitled

a guest
Feb 1st, 2020
111
Never
Not a member of Pastebin yet? Sign Up, it unlocks many cool features!
  1. General
  2. Unique ID : 212051016877228536621428367850951629439 (0x9F878A5207664F83C03A758DCDBF5A7F)
  3. Complete name : RoboCop (1987) Director's Cut BDRemux 1080p Arrow.mkv
  4. Format : Matroska
  5. Format version : Version 4
  6. File size : 28.7 GiB
  7. Duration : 1 h 43 min
  8. Overall bit rate mode : Variable
  9. Overall bit rate : 39.8 Mb/s
  10. Movie name : RoboCop (1987) Director's Cut
  11. Encoded date : UTC 2020-02-01 09:22:25
  12. Writing application : mkvmerge v43.0.0 ('The Quartermaster') 64-bit
  13. Writing library : libebml v1.3.10 + libmatroska v1.5.2
  14. Cover : Yes
  15. Attachments : cover.jpg
  16.  
  17. Video
  18. ID : 1
  19. Format : AVC
  20. Format/Info : Advanced Video Codec
  21. Format profile : High@L4.1
  22. Format settings : CABAC / 3 Ref Frames
  23. Format settings, CABAC : Yes
  24. Format settings, Reference : 3 frames
  25. Codec ID : V_MPEG4/ISO/AVC
  26. Duration : 1 h 43 min
  27. Bit rate mode : Variable
  28. Bit rate : 29.2 Mb/s
  29. Maximum bit rate : 38.0 Mb/s
  30. Width : 1 920 pixels
  31. Height : 1 080 pixels
  32. Display aspect ratio : 16:9
  33. Frame rate mode : Constant
  34. Frame rate : 23.976 (24000/1001) FPS
  35. Color space : YUV
  36. Chroma subsampling : 4:2:0
  37. Bit depth : 8 bits
  38. Scan type : Progressive
  39. Bits/(Pixel*Frame) : 0.588
  40. Stream size : 21.1 GiB (74%)
  41. Title : Director's Cut / Arrow Video
  42. Language : English
  43. Default : Yes
  44. Forced : No
  45. Color range : Limited
  46. Color primaries : BT.709
  47. Transfer characteristics : BT.709
  48. Matrix coefficients : BT.709
  49.  
  50. Audio #1
  51. ID : 2
  52. Format : DTS
  53. Format/Info : Digital Theater Systems
  54. Codec ID : A_DTS
  55. Duration : 1 h 43 min
  56. Bit rate mode : Constant
  57. Bit rate : 768 kb/s
  58. Channel(s) : 6 channels
  59. Channel layout : C L R Ls Rs LFE
  60. Sampling rate : 48.0 kHz
  61. Frame rate : 93.750 FPS (512 SPF)
  62. Bit depth : 24 bits
  63. Compression mode : Lossy
  64. Stream size : 567 MiB (2%)
  65. Title : MVO Blu-ray
  66. Language : Russian
  67. Default : Yes
  68. Forced : No
  69.  
  70. Audio #2
  71. ID : 3
  72. Format : DTS
  73. Format/Info : Digital Theater Systems
  74. Codec ID : A_DTS
  75. Duration : 1 h 43 min
  76. Bit rate mode : Constant
  77. Bit rate : 755 kb/s
  78. Channel(s) : 6 channels
  79. Channel layout : C L R Ls Rs LFE
  80. Sampling rate : 48.0 kHz
  81. Frame rate : 93.750 FPS (512 SPF)
  82. Bit depth : 24 bits
  83. Compression mode : Lossy
  84. Stream size : 557 MiB (2%)
  85. Title : MVO Superbit
  86. Language : Russian
  87. Default : No
  88. Forced : No
  89.  
  90. Audio #3
  91. ID : 4
  92. Format : AC-3
  93. Format/Info : Audio Coding 3
  94. Commercial name : Dolby Digital
  95. Codec ID : A_AC3
  96. Duration : 1 h 43 min
  97. Bit rate mode : Constant
  98. Bit rate : 384 kb/s
  99. Channel(s) : 6 channels
  100. Channel layout : L R C LFE Ls Rs
  101. Sampling rate : 48.0 kHz
  102. Frame rate : 31.250 FPS (1536 SPF)
  103. Compression mode : Lossy
  104. Stream size : 284 MiB (1%)
  105. Title : MVO Киномания
  106. Language : Russian
  107. Service kind : Complete Main
  108. Default : No
  109. Forced : No
  110.  
  111. Audio #4
  112. ID : 5
  113. Format : AC-3
  114. Format/Info : Audio Coding 3
  115. Commercial name : Dolby Digital
  116. Codec ID : A_AC3
  117. Duration : 1 h 43 min
  118. Bit rate mode : Constant
  119. Bit rate : 384 kb/s
  120. Channel(s) : 6 channels
  121. Channel layout : L R C LFE Ls Rs
  122. Sampling rate : 48.0 kHz
  123. Frame rate : 31.250 FPS (1536 SPF)
  124. Compression mode : Lossy
  125. Stream size : 284 MiB (1%)
  126. Title : AVO Живов
  127. Language : Russian
  128. Service kind : Complete Main
  129. Default : No
  130. Forced : No
  131.  
  132. Audio #5
  133. ID : 6
  134. Format : DTS XLL
  135. Format/Info : Digital Theater Systems
  136. Commercial name : DTS-HD Master Audio
  137. Codec ID : A_DTS
  138. Duration : 1 h 43 min
  139. Bit rate mode : Variable
  140. Bit rate : 3 613 kb/s
  141. Channel(s) : 6 channels
  142. Channel layout : C L R Ls Rs LFE
  143. Sampling rate : 48.0 kHz
  144. Frame rate : 93.750 FPS (512 SPF)
  145. Bit depth : 24 bits
  146. Compression mode : Lossless
  147. Stream size : 2.61 GiB (9%)
  148. Title : Original 5.1
  149. Language : English
  150. Default : No
  151. Forced : No
  152.  
  153. Audio #6
  154. ID : 7
  155. Format : DTS XLL
  156. Format/Info : Digital Theater Systems
  157. Commercial name : DTS-HD Master Audio
  158. Codec ID : A_DTS
  159. Duration : 1 h 43 min
  160. Bit rate mode : Variable
  161. Bit rate : 2 947 kb/s
  162. Channel(s) : 4 channels
  163. Channel layout : C L R Cb
  164. Sampling rate : 48.0 kHz
  165. Frame rate : 93.750 FPS (512 SPF)
  166. Bit depth : 24 bits
  167. Compression mode : Lossless
  168. Stream size : 2.13 GiB (7%)
  169. Title : Original 4.0
  170. Language : English
  171. Default : No
  172. Forced : No
  173.  
  174. Audio #7
  175. ID : 8
  176. Format : DTS XLL
  177. Format/Info : Digital Theater Systems
  178. Commercial name : DTS-HD Master Audio
  179. Codec ID : A_DTS
  180. Duration : 1 h 43 min
  181. Bit rate mode : Variable
  182. Bit rate : 1 643 kb/s
  183. Channel(s) : 2 channels
  184. Sampling rate : 48.0 kHz
  185. Frame rate : 93.750 FPS (512 SPF)
  186. Bit depth : 24 bits
  187. Compression mode : Lossless
  188. Stream size : 1.19 GiB (4%)
  189. Title : Original 2.0
  190. Language : English
  191. Default : No
  192. Forced : No
  193.  
  194. Text #1
  195. ID : 9
  196. Format : UTF-8
  197. Codec ID : S_TEXT/UTF8
  198. Codec ID/Info : UTF-8 Plain Text
  199. Duration : 1 h 41 min
  200. Bit rate : 1 b/s
  201. Count of elements : 18
  202. Stream size : 801 Bytes (0%)
  203. Title : Forced
  204. Language : Russian
  205. Default : Yes
  206. Forced : Yes
  207.  
  208. Text #2
  209. ID : 10
  210. Format : UTF-8
  211. Codec ID : S_TEXT/UTF8
  212. Codec ID/Info : UTF-8 Plain Text
  213. Duration : 1 h 42 min
  214. Bit rate : 83 b/s
  215. Count of elements : 1192
  216. Stream size : 62.7 KiB (0%)
  217. Title : Full
  218. Language : Russian
  219. Default : No
  220. Forced : No
  221.  
  222. Text #3
  223. ID : 11
  224. Format : UTF-8
  225. Codec ID : S_TEXT/UTF8
  226. Codec ID/Info : UTF-8 Plain Text
  227. Duration : 1 h 36 min
  228. Bit rate : 56 b/s
  229. Count of elements : 1330
  230. Stream size : 39.4 KiB (0%)
  231. Title : SDH
  232. Language : English
  233. Default : No
  234. Forced : No
  235.  
  236. Text #4
  237. ID : 12
  238. Format : PGS
  239. Codec ID : S_HDMV/PGS
  240. Codec ID/Info : Picture based subtitle format used on BDs/HD-DVDs
  241. Duration : 1 h 36 min
  242. Bit rate : 38.2 kb/s
  243. Count of elements : 2660
  244. Stream size : 26.2 MiB (0%)
  245. Title : SDH
  246. Language : English
  247. Default : No
  248. Forced : No
  249.  
  250. Menu
  251. 00:00:00.000 : en:Chapter 1
  252. 00:09:50.798 : en:Chapter 2
  253. 00:17:08.068 : en:Chapter 3
  254. 00:24:20.000 : en:Chapter 4
  255. 00:33:54.866 : en:Chapter 5
  256. 00:45:14.336 : en:Chapter 6
  257. 00:55:05.844 : en:Chapter 7
  258. 01:01:40.279 : en:Chapter 8
  259. 01:08:44.453 : en:Chapter 9
  260. 01:17:26.266 : en:Chapter 10
  261. 01:25:49.978 : en:Chapter 11
  262. 01:34:04.055 : en:Chapter 12
RAW Paste Data