SHARE
TWEET

Whitney.2018.720p.WEB-DL.DD5.1.H264-CMRG.mkv

iMN0 Oct 1st, 2018 17 Never
Not a member of Pastebin yet? Sign Up, it unlocks many cool features!
  1. General
  2. Unique ID                                : 183378130423648653115012352976669817771 (0x89F557DF6B76B178A478C7AFF25EBBAB)
  3. Complete name                            : Whitney.2018.720p.WEB-DL.DD5.1.H264-CMRG.mkv
  4. Format                                   : Matroska
  5. Format version                           : Version 4 / Version 2
  6. File size                                : 3.82 GiB
  7. Duration                                 : 2h 0mn
  8. Overall bit rate                         : 4 554 Kbps
  9. Movie name                               : CMRG
  10. Encoded date                             : UTC 2018-10-01 16:22:39
  11. Writing application                      : mkvmerge v11.0.0 ('Alive') 64bit
  12. Writing library                          : libebml v1.3.4 + libmatroska v1.4.5
  13.  
  14. Video
  15. ID                                       : 2
  16. Format                                   : AVC
  17. Format/Info                              : Advanced Video Codec
  18. Format profile                           : High@L3.1
  19. Format settings, CABAC                   : No
  20. Format settings, ReFrames                : 2 frames
  21. Codec ID                                 : V_MPEG4/ISO/AVC
  22. Duration                                 : 2h 0mn
  23. Bit rate                                 : 4 054 Kbps
  24. Width                                    : 1 280 pixels
  25. Height                                   : 686 pixels
  26. Display aspect ratio                     : 1.85:1
  27. Frame rate mode                          : Constant
  28. Frame rate                               : 23.976 (24000/1001) fps
  29. Color space                              : YUV
  30. Chroma subsampling                       : 4:2:0
  31. Bit depth                                : 8 bits
  32. Scan type                                : Progressive
  33. Bits/(Pixel*Frame)                       : 0.193
  34. Stream size                              : 3.40 GiB (89%)
  35. Language                                 : English
  36. Default                                  : Yes
  37. Forced                                   : No
  38. Color range                              : Limited
  39. Color primaries                          : BT.709
  40. Transfer characteristics                 : BT.709
  41. Matrix coefficients                      : BT.709
  42.  
  43. Audio #1
  44. ID                                       : 1
  45. Format                                   : AAC
  46. Format/Info                              : Advanced Audio Codec
  47. Format profile                           : LC
  48. Codec ID                                 : A_AAC
  49. Duration                                 : 2h 0mn
  50. Bit rate                                 : 113 Kbps
  51. Channel(s)                               : 2 channels
  52. Channel positions                        : Front: L R
  53. Sampling rate                            : 48.0 KHz
  54. Frame rate                               : 46.875 fps (1024 spf)
  55. Compression mode                         : Lossy
  56. Delay relative to video                  : -42ms
  57. Stream size                              : 97.5 MiB (2%)
  58. Language                                 : English
  59. Default                                  : Yes
  60. Forced                                   : No
  61.  
  62. Audio #2
  63. ID                                       : 3
  64. Format                                   : AC-3
  65. Format/Info                              : Audio Coding 3
  66. Mode extension                           : CM (complete main)
  67. Format settings, Endianness              : Big
  68. Codec ID                                 : A_AC3
  69. Duration                                 : 2h 0mn
  70. Bit rate mode                            : Constant
  71. Bit rate                                 : 384 Kbps
  72. Channel(s)                               : 6 channels
  73. Channel positions                        : Front: L C R, Side: L R, LFE
  74. Sampling rate                            : 48.0 KHz
  75. Frame rate                               : 31.250 fps (1536 spf)
  76. Compression mode                         : Lossy
  77. Delay relative to video                  : -42ms
  78. Stream size                              : 330 MiB (8%)
  79. Language                                 : English
  80. Default                                  : No
  81. Forced                                   : No
  82.  
  83. Menu
  84. 00:00:00.000                             : en:1
  85. 00:03:02.000                             : en:2
  86. 00:12:39.000                             : en:3
  87. 00:23:44.000                             : en:4
  88. 00:31:22.000                             : en:5
  89. 00:42:09.000                             : en:6
  90. 00:53:50.000                             : en:7
  91. 01:02:37.000                             : en:8
  92. 01:10:21.000                             : en:9
  93. 01:21:29.000                             : en:10
  94. 01:31:43.000                             : en:11
  95. 01:39:05.000                             : en:12
  96. 01:45:15.000                             : en:13
  97. 01:55:34.000                             : en:14
RAW Paste Data
We use cookies for various purposes including analytics. By continuing to use Pastebin, you agree to our use of cookies as described in the Cookies Policy. OK, I Understand
 
Top