SHARE
TWEET

L.A.Confidential.1997.1080p.BluRay.REMUX.AVC.DTS-HD.MA.5.1-EPSiLON

a guest Jun 12th, 2019 44 Never
Not a member of Pastebin yet? Sign Up, it unlocks many cool features!
  1. General
  2. Unique ID                                : 320558778774322896970393173566887677076 (0xF12960066842E65EFAA117468851CC94)
  3. Complete name                            : L.A.Confidential.1997.1080p.BluRay.REMUX.AVC.DTS-HD.MA.5.1-EPSiLON.mkv
  4. Format                                   : Matroska
  5. Format version                           : Version 4
  6. File size                                : 33.6 GiB
  7. Duration                                 : 2 h 17 min
  8. Overall bit rate mode                    : Variable
  9. Overall bit rate                         : 34.9 Mb/s
  10. Movie name                               : L.A. Confidential (1997)
  11. Encoded date                             : UTC 2018-12-01 08:45:49
  12. Writing application                      : mkvmerge v27.0.0 ('Metropolis') 64-bit
  13. Writing library                          : libebml v1.3.6 + libmatroska v1.4.9
  14.  
  15. Video
  16. ID                                       : 1
  17. Format                                   : AVC
  18. Format/Info                              : Advanced Video Codec
  19. Format profile                           : High@L4.1
  20. Format settings                          : CABAC / 4 Ref Frames
  21. Format settings, CABAC                   : Yes
  22. Format settings, Reference frames        : 4 frames
  23. Codec ID                                 : V_MPEG4/ISO/AVC
  24. Duration                                 : 2 h 17 min
  25. Bit rate mode                            : Variable
  26. Bit rate                                 : 29.9 Mb/s
  27. Maximum bit rate                         : 37.0 Mb/s
  28. Width                                    : 1 920 pixels
  29. Height                                   : 1 080 pixels
  30. Display aspect ratio                     : 16:9
  31. Frame rate mode                          : Constant
  32. Frame rate                               : 23.976 (24000/1001) FPS
  33. Standard                                 : NTSC
  34. Color space                              : YUV
  35. Chroma subsampling                       : 4:2:0
  36. Bit depth                                : 8 bits
  37. Scan type                                : Progressive
  38. Bits/(Pixel*Frame)                       : 0.601
  39. Stream size                              : 28.8 GiB (86%)
  40. Title                                    : MPEG-4 AVC Video / 29872 kbps / 1080p / 23.976 fps / 16:9 / High Profile 4.1
  41. Language                                 : English
  42. Default                                  : Yes
  43. Forced                                   : No
  44. Color range                              : Limited
  45. Color primaries                          : BT.709
  46. Transfer characteristics                 : BT.709
  47. Matrix coefficients                      : BT.709
  48.  
  49. Audio #1
  50. ID                                       : 2
  51. Format                                   : DTS XLL
  52. Format/Info                              : Digital Theater Systems
  53. Commercial name                          : DTS-HD Master Audio
  54. Codec ID                                 : A_DTS
  55. Duration                                 : 2 h 17 min
  56. Bit rate mode                            : Variable
  57. Bit rate                                 : 4 041 kb/s
  58. Channel(s)                               : 6 channels
  59. Channel layout                           : C L R Ls Rs LFE
  60. Sampling rate                            : 48.0 kHz
  61. Frame rate                               : 93.750 FPS (512 SPF)
  62. Bit depth                                : 24 bits
  63. Compression mode                         : Lossless
  64. Delay relative to video                  : 9 s 509 ms
  65. Stream size                              : 3.89 GiB (12%)
  66. Title                                    : DTS-HD Master Audio / 5.1 / 48 kHz / 4041 kbps / 24-bit
  67. Language                                 : English
  68. Default                                  : Yes
  69. Forced                                   : No
  70.  
  71. Audio #2
  72. ID                                       : 3
  73. Format                                   : AC-3
  74. Format/Info                              : Audio Coding 3
  75. Commercial name                          : Dolby Digital
  76. Codec ID                                 : A_AC3
  77. Duration                                 : 2 h 17 min
  78. Bit rate mode                            : Constant
  79. Bit rate                                 : 224 kb/s
  80. Channel(s)                               : 2 channels
  81. Channel layout                           : L R
  82. Sampling rate                            : 48.0 kHz
  83. Frame rate                               : 31.250 FPS (1536 SPF)
  84. Bit depth                                : 16 bits
  85. Compression mode                         : Lossy
  86. Delay relative to video                  : 9 s 509 ms
  87. Stream size                              : 221 MiB (1%)
  88. Title                                    : Commentary by critic/historian Andrew Sarris, producers Arnon Milchan and Michael Nathanson, novelist James Ellroy, costume designer Ruth Myers, screenwriter Brian Helgeland, production designer Jeannine Oppewall, editor Peter Honess, director of photography Dante Spinotti, and actors Russell Crowe, Kevin Spacey, Guy Pearce, James Cromwell, David Strathairn, Kim Basinger and Danny DeVito
  89. Language                                 : English
  90. Service kind                             : Complete Main
  91. Default                                  : No
  92. Forced                                   : No
  93.  
  94. Text #1
  95. ID                                       : 4
  96. Format                                   : PGS
  97. Codec ID                                 : S_HDMV/PGS
  98. Codec ID/Info                            : Picture based subtitle format used on BDs/HD-DVDs
  99. Duration                                 : 2 h 12 min
  100. Bit rate                                 : 36.1 kb/s
  101. Count of elements                        : 3124
  102. Stream size                              : 34.1 MiB (0%)
  103. Language                                 : English
  104. Default                                  : No
  105. Forced                                   : No
  106.  
  107. Text #2
  108. ID                                       : 5
  109. Format                                   : PGS
  110. Codec ID                                 : S_HDMV/PGS
  111. Codec ID/Info                            : Picture based subtitle format used on BDs/HD-DVDs
  112. Duration                                 : 2 h 17 min
  113. Bit rate                                 : 15.3 kb/s
  114. Count of elements                        : 3208
  115. Stream size                              : 15.0 MiB (0%)
  116. Language                                 : Arabic
  117. Default                                  : No
  118. Forced                                   : No
  119.  
  120. Text #3
  121. ID                                       : 6
  122. Format                                   : PGS
  123. Codec ID                                 : S_HDMV/PGS
  124. Codec ID/Info                            : Picture based subtitle format used on BDs/HD-DVDs
  125. Duration                                 : 2 h 17 min
  126. Bit rate                                 : 29.3 kb/s
  127. Count of elements                        : 2568
  128. Stream size                              : 28.8 MiB (0%)
  129. Language                                 : Bulgarian
  130. Default                                  : No
  131. Forced                                   : No
  132.  
  133. Text #4
  134. ID                                       : 7
  135. Format                                   : PGS
  136. Codec ID                                 : S_HDMV/PGS
  137. Codec ID/Info                            : Picture based subtitle format used on BDs/HD-DVDs
  138. Duration                                 : 2 h 17 min
  139. Bit rate                                 : 31.5 kb/s
  140. Count of elements                        : 3166
  141. Stream size                              : 31.0 MiB (0%)
  142. Language                                 : Chinese
  143. Default                                  : No
  144. Forced                                   : No
  145.  
  146. Text #5
  147. ID                                       : 8
  148. Format                                   : PGS
  149. Codec ID                                 : S_HDMV/PGS
  150. Codec ID/Info                            : Picture based subtitle format used on BDs/HD-DVDs
  151. Duration                                 : 2 h 17 min
  152. Bit rate                                 : 29.6 kb/s
  153. Count of elements                        : 3242
  154. Stream size                              : 29.1 MiB (0%)
  155. Language                                 : Croatian
  156. Default                                  : No
  157. Forced                                   : No
  158.  
  159. Text #6
  160. ID                                       : 9
  161. Format                                   : PGS
  162. Codec ID                                 : S_HDMV/PGS
  163. Codec ID/Info                            : Picture based subtitle format used on BDs/HD-DVDs
  164. Duration                                 : 2 h 17 min
  165. Bit rate                                 : 28.7 kb/s
  166. Count of elements                        : 3202
  167. Stream size                              : 28.2 MiB (0%)
  168. Language                                 : Czech
  169. Default                                  : No
  170. Forced                                   : No
  171.  
  172. Text #7
  173. ID                                       : 10
  174. Format                                   : PGS
  175. Codec ID                                 : S_HDMV/PGS
  176. Codec ID/Info                            : Picture based subtitle format used on BDs/HD-DVDs
  177. Duration                                 : 2 h 17 min
  178. Bit rate                                 : 25.7 kb/s
  179. Count of elements                        : 3136
  180. Stream size                              : 25.3 MiB (0%)
  181. Language                                 : Dutch
  182. Default                                  : No
  183. Forced                                   : No
  184.  
  185. Text #8
  186. ID                                       : 11
  187. Format                                   : PGS
  188. Codec ID                                 : S_HDMV/PGS
  189. Codec ID/Info                            : Picture based subtitle format used on BDs/HD-DVDs
  190. Duration                                 : 2 h 17 min
  191. Bit rate                                 : 26.2 kb/s
  192. Count of elements                        : 3014
  193. Stream size                              : 25.8 MiB (0%)
  194. Language                                 : French
  195. Default                                  : No
  196. Forced                                   : No
  197.  
  198. Text #9
  199. ID                                       : 12
  200. Format                                   : PGS
  201. Codec ID                                 : S_HDMV/PGS
  202. Codec ID/Info                            : Picture based subtitle format used on BDs/HD-DVDs
  203. Duration                                 : 2 h 17 min
  204. Bit rate                                 : 35.9 kb/s
  205. Count of elements                        : 3188
  206. Stream size                              : 35.2 MiB (0%)
  207. Language                                 : German
  208. Default                                  : No
  209. Forced                                   : No
  210.  
  211. Text #10
  212. ID                                       : 13
  213. Format                                   : PGS
  214. Codec ID                                 : S_HDMV/PGS
  215. Codec ID/Info                            : Picture based subtitle format used on BDs/HD-DVDs
  216. Duration                                 : 2 h 17 min
  217. Bit rate                                 : 30.8 kb/s
  218. Count of elements                        : 3120
  219. Stream size                              : 30.3 MiB (0%)
  220. Language                                 : Greek
  221. Default                                  : No
  222. Forced                                   : No
  223.  
  224. Text #11
  225. ID                                       : 14
  226. Format                                   : PGS
  227. Codec ID                                 : S_HDMV/PGS
  228. Codec ID/Info                            : Picture based subtitle format used on BDs/HD-DVDs
  229. Duration                                 : 2 h 17 min
  230. Bit rate                                 : 23.1 kb/s
  231. Count of elements                        : 3180
  232. Stream size                              : 22.7 MiB (0%)
  233. Language                                 : Hebrew
  234. Default                                  : No
  235. Forced                                   : No
  236.  
  237. Text #12
  238. ID                                       : 15
  239. Format                                   : PGS
  240. Codec ID                                 : S_HDMV/PGS
  241. Codec ID/Info                            : Picture based subtitle format used on BDs/HD-DVDs
  242. Duration                                 : 2 h 17 min
  243. Bit rate                                 : 32.2 kb/s
  244. Count of elements                        : 3294
  245. Stream size                              : 31.7 MiB (0%)
  246. Language                                 : Icelandic
  247. Default                                  : No
  248. Forced                                   : No
  249.  
  250. Text #13
  251. ID                                       : 16
  252. Format                                   : PGS
  253. Codec ID                                 : S_HDMV/PGS
  254. Codec ID/Info                            : Picture based subtitle format used on BDs/HD-DVDs
  255. Duration                                 : 2 h 17 min
  256. Bit rate                                 : 31.3 kb/s
  257. Count of elements                        : 3220
  258. Stream size                              : 30.8 MiB (0%)
  259. Language                                 : Italian
  260. Default                                  : No
  261. Forced                                   : No
  262.  
  263. Text #14
  264. ID                                       : 17
  265. Format                                   : PGS
  266. Codec ID                                 : S_HDMV/PGS
  267. Codec ID/Info                            : Picture based subtitle format used on BDs/HD-DVDs
  268. Duration                                 : 2 h 17 min
  269. Bit rate                                 : 22.5 kb/s
  270. Count of elements                        : 3059
  271. Stream size                              : 22.1 MiB (0%)
  272. Language                                 : Japanese
  273. Default                                  : No
  274. Forced                                   : No
  275.  
  276. Text #15
  277. ID                                       : 18
  278. Format                                   : PGS
  279. Codec ID                                 : S_HDMV/PGS
  280. Codec ID/Info                            : Picture based subtitle format used on BDs/HD-DVDs
  281. Duration                                 : 2 h 17 min
  282. Bit rate                                 : 24.9 kb/s
  283. Count of elements                        : 3164
  284. Stream size                              : 24.4 MiB (0%)
  285. Language                                 : Korean
  286. Default                                  : No
  287. Forced                                   : No
  288.  
  289. Text #16
  290. ID                                       : 19
  291. Format                                   : PGS
  292. Codec ID                                 : S_HDMV/PGS
  293. Codec ID/Info                            : Picture based subtitle format used on BDs/HD-DVDs
  294. Duration                                 : 2 h 17 min
  295. Bit rate                                 : 28.6 kb/s
  296. Count of elements                        : 3070
  297. Stream size                              : 28.1 MiB (0%)
  298. Language                                 : Polish
  299. Default                                  : No
  300. Forced                                   : No
  301.  
  302. Text #17
  303. ID                                       : 20
  304. Format                                   : PGS
  305. Codec ID                                 : S_HDMV/PGS
  306. Codec ID/Info                            : Picture based subtitle format used on BDs/HD-DVDs
  307. Duration                                 : 2 h 17 min
  308. Bit rate                                 : 30.9 kb/s
  309. Count of elements                        : 3256
  310. Stream size                              : 30.3 MiB (0%)
  311. Language                                 : Portuguese
  312. Default                                  : No
  313. Forced                                   : No
  314.  
  315. Text #18
  316. ID                                       : 21
  317. Format                                   : PGS
  318. Codec ID                                 : S_HDMV/PGS
  319. Codec ID/Info                            : Picture based subtitle format used on BDs/HD-DVDs
  320. Duration                                 : 2 h 17 min
  321. Bit rate                                 : 31.8 kb/s
  322. Count of elements                        : 2706
  323. Stream size                              : 31.2 MiB (0%)
  324. Language                                 : Romanian
  325. Default                                  : No
  326. Forced                                   : No
  327.  
  328. Text #19
  329. ID                                       : 22
  330. Format                                   : PGS
  331. Codec ID                                 : S_HDMV/PGS
  332. Codec ID/Info                            : Picture based subtitle format used on BDs/HD-DVDs
  333. Duration                                 : 2 h 17 min
  334. Bit rate                                 : 31.4 kb/s
  335. Count of elements                        : 3154
  336. Stream size                              : 30.8 MiB (0%)
  337. Language                                 : Serbian
  338. Default                                  : No
  339. Forced                                   : No
  340.  
  341. Text #20
  342. ID                                       : 23
  343. Format                                   : PGS
  344. Codec ID                                 : S_HDMV/PGS
  345. Codec ID/Info                            : Picture based subtitle format used on BDs/HD-DVDs
  346. Duration                                 : 2 h 17 min
  347. Bit rate                                 : 30.2 kb/s
  348. Count of elements                        : 3162
  349. Stream size                              : 29.6 MiB (0%)
  350. Language                                 : Slovenian
  351. Default                                  : No
  352. Forced                                   : No
  353.  
  354. Text #21
  355. ID                                       : 24
  356. Format                                   : PGS
  357. Codec ID                                 : S_HDMV/PGS
  358. Codec ID/Info                            : Picture based subtitle format used on BDs/HD-DVDs
  359. Duration                                 : 2 h 17 min
  360. Bit rate                                 : 28.6 kb/s
  361. Count of elements                        : 3148
  362. Stream size                              : 28.1 MiB (0%)
  363. Language                                 : Turkish
  364. Default                                  : No
  365. Forced                                   : No
  366.  
  367. Text #22
  368. ID                                       : 25
  369. Format                                   : PGS
  370. Codec ID                                 : S_HDMV/PGS
  371. Codec ID/Info                            : Picture based subtitle format used on BDs/HD-DVDs
  372. Duration                                 : 2 h 12 min
  373. Bit rate                                 : 34.5 kb/s
  374. Count of elements                        : 2982
  375. Stream size                              : 32.6 MiB (0%)
  376. Title                                    : Commentary by critic/historian Andrew Sarris, producers Arnon Milchan and Michael Nathanson, novelist James Ellroy, costume designer Ruth Myers, screenwriter Brian Helgeland, production designer Jeannine Oppewall, editor Peter Honess, director of photography Dante Spinotti, and actors Russell Crowe, Kevin Spacey, Guy Pearce, James Cromwell, David Strathairn, Kim Basinger and Danny DeVito
  377. Language                                 : Japanese
  378. Default                                  : No
  379. Forced                                   : No
  380.  
  381. Text #23
  382. ID                                       : 26
  383. Format                                   : PGS
  384. Codec ID                                 : S_HDMV/PGS
  385. Codec ID/Info                            : Picture based subtitle format used on BDs/HD-DVDs
  386. Duration                                 : 2 h 17 min
  387. Bit rate                                 : 44.4 kb/s
  388. Count of elements                        : 4094
  389. Stream size                              : 43.7 MiB (0%)
  390. Title                                    : Commentary by critic/historian Andrew Sarris, producers Arnon Milchan and Michael Nathanson, novelist James Ellroy, costume designer Ruth Myers, screenwriter Brian Helgeland, production designer Jeannine Oppewall, editor Peter Honess, director of photography Dante Spinotti, and actors Russell Crowe, Kevin Spacey, Guy Pearce, James Cromwell, David Strathairn, Kim Basinger and Danny DeVito
  391. Language                                 : French
  392. Default                                  : No
  393. Forced                                   : No
  394.  
  395. Text #24
  396. ID                                       : 27
  397. Format                                   : PGS
  398. Codec ID                                 : S_HDMV/PGS
  399. Codec ID/Info                            : Picture based subtitle format used on BDs/HD-DVDs
  400. Duration                                 : 2 h 17 min
  401. Bit rate                                 : 57.8 kb/s
  402. Count of elements                        : 4198
  403. Stream size                              : 56.9 MiB (0%)
  404. Title                                    : Commentary by critic/historian Andrew Sarris, producers Arnon Milchan and Michael Nathanson, novelist James Ellroy, costume designer Ruth Myers, screenwriter Brian Helgeland, production designer Jeannine Oppewall, editor Peter Honess, director of photography Dante Spinotti, and actors Russell Crowe, Kevin Spacey, Guy Pearce, James Cromwell, David Strathairn, Kim Basinger and Danny DeVito
  405. Language                                 : German
  406. Default                                  : No
  407. Forced                                   : No
  408.  
  409. Menu
  410. 00:00:00.000                             : en:Blood of Christmas
  411. 00:16:20.938                             : en:Each Deal
  412. 00:24:27.549                             : en:A Sign of the Incident
  413. 00:30:01.967                             : en:The Massacre of Knight Owl
  414. 00:36:45.995                             : en:Investigation Started
  415. 00:45:59.632                             : en:Suspect's Information
  416. 00:56:08.031                             : en:Murder for Justice
  417. 01:02:27.619                             : en:City of Angels
  418. 01:07:45.645                             : en:Death of A Young Actor
  419. 01:14:33.010                             : en:Corpse of the Basement
  420. 01:24:27.145                             : en:Information Gathering
  421. 01:36:37.291                             : en:Rolo Tomasi
  422. 01:40:50.127                             : en:Structured Trap
  423. 01:51:31.310                             : en:Repulsion and Cooperation
  424. 01:58:18.800                             : en:Victory Motel
  425. 02:07:05.952                             : en:heroes
  426. 02:13:01.640                             : en:End Roll
RAW Paste Data
We use cookies for various purposes including analytics. By continuing to use Pastebin, you agree to our use of cookies as described in the Cookies Policy. OK, I Understand
 
Top