Guest User

Untitled

a guest
Sep 17th, 2021
54
Never
Not a member of Pastebin yet? Sign Up, it unlocks many cool features!
  1. Общее
  2. Уникальный идентификатор : 29537665620837390385675855387787485223 (0x1638BF5A3C7EC771349439405EBF6027)
  3. Полное имя : /Prisoners.of.the.Ghostland.2021.2160p.WEB-DL.DD5.1.HDR.HEVC-EVO.Ru.mkv
  4. Формат : Matroska
  5. Версия формата : Version 4
  6. Размер файла : 18,1 Гбайт
  7. Продолжительность : 1 ч. 42 м.
  8. Общий поток : 25,3 Мбит/сек
  9. Название фильма : Uzniki.strany.prizrakov.2021.D.WEB-DL.720p
  10. Дата кодирования : UTC 2021-09-17 15:05:48
  11. Программа кодирования : mkvmerge v53.0.0 ('Fool's Gold') 64-bit
  12. Библиотека кодирования : libebml v1.4.1 + libmatroska v1.6.2
  13. Attachments : poster.jpg
  14.  
  15. Видео
  16. Идентификатор : 1
  17. Формат : HEVC
  18. Формат/Информация : High Efficiency Video Coding
  19. Профиль формата : Main 10@L5@High
  20. HDR format : SMPTE ST 2086, HDR10 compatible
  21. Идентификатор кодека : V_MPEGH/ISO/HEVC
  22. Продолжительность : 1 ч. 42 м.
  23. Битрейт : 24,5 Мбит/сек
  24. Ширина : 3 832 пикселя
  25. Высота : 1 592 пикселя
  26. Соотношение сторон : 2,40:1
  27. Режим частоты кадров : Постоянный
  28. Частота кадров : 23,976 (24000/1001) кадра/сек
  29. Цветовое пространство : YUV
  30. Субдискретизация насыщенности : 4:2:0 (Type 2)
  31. Битовая глубина : 10 бит
  32. Бит/(Пиксели*Кадры) : 0.167
  33. Размер потока : 17,5 Гбайт (97%)
  34. Default : Да
  35. Forced : Нет
  36. Цветовой диапазон : Limited
  37. Основные цвета : BT.2020
  38. Характеристики трансфера : PQ
  39. Коэффициенты матрицы : BT.2020 non-constant
  40. Mastering display color primaries : Display P3
  41. Mastering display luminance : min: 0.0001 cd/m2, max: 1000 cd/m2
  42. Maximum Content Light Level : 1017 cd/m2
  43. Maximum Frame-Average Light Level : 398 cd/m2
  44.  
  45. Аудио #1
  46. Идентификатор : 2
  47. Формат : E-AC-3
  48. Формат/Информация : Enhanced AC-3
  49. Коммерческое название : Dolby Digital Plus
  50. Идентификатор кодека : A_EAC3
  51. Продолжительность : 1 ч. 42 м.
  52. Вид битрейта : Постоянный
  53. Битрейт : 448 Кбит/сек
  54. Каналы : 6 каналов
  55. Channel layout : L R C LFE Ls Rs
  56. Частота : 48,0 КГц
  57. Частота кадров : 31,250 кадров/сек (1536 SPF)
  58. Метод сжатия : С потерями
  59. Задержка видео : 10 с. 0 мс.
  60. Размер потока : 328 Мбайт (2%)
  61. Язык : Russian
  62. Service kind : Complete Main
  63. Default : Да
  64. Forced : Нет
  65.  
  66. Аудио #2
  67. Идентификатор : 3
  68. Формат : AC-3
  69. Формат/Информация : Audio Coding 3
  70. Коммерческое название : Dolby Digital
  71. Идентификатор кодека : A_AC3
  72. Продолжительность : 1 ч. 42 м.
  73. Вид битрейта : Постоянный
  74. Битрейт : 384 Кбит/сек
  75. Каналы : 6 каналов
  76. Channel layout : L R C LFE Ls Rs
  77. Частота : 48,0 КГц
  78. Частота кадров : 31,250 кадров/сек (1536 SPF)
  79. Метод сжатия : С потерями
  80. Размер потока : 282 Мбайт (2%)
  81. Заголовок : English
  82. Язык : English
  83. Service kind : Complete Main
  84. Default : Нет
  85. Forced : Нет
  86.  
  87.  
RAW Paste Data