SHARE
TWEET

Untitled

a guest Aug 30th, 2017 42 Never
Not a member of Pastebin yet? Sign Up, it unlocks many cool features!
  1. General
  2. Unique ID                                : 200315824166965409141259412358254794014 (0x96B36CA61E7F0823BCAF97488CD3951E)
  3. Complete name                            : E:\3.Jours.dans.les.pas.d.un.Berger.2017.FRENCH.720p.HDTV.x264-GFS.mkv
  4. Format                                   : Matroska
  5. Format version                           : Version 2
  6. File size                                : 3.16 GiB
  7. Duration                                 : 1h 20mn
  8. Overall bit rate                         : 5 626 Kbps
  9. Encoded date                             : UTC 2017-08-29 23:32:19
  10. Writing application                      : mkvmerge v15.0.0 ('Duel with the Devil') 64-bit
  11. Writing library                          : libebml v1.3.5 + libmatroska v1.4.5
  12. DURATION                                 : 01:20:31.808000000
  13. NUMBER_OF_FRAMES                         : 150994
  14. NUMBER_OF_BYTES                          : 77308928
  15. _STATISTICS_WRITING_APP                  : mkvmerge v15.0.0 ('Duel with the Devil') 64-bit
  16. _STATISTICS_WRITING_DATE_UTC             : 2017-08-29 23:32:19
  17. _STATISTICS_TAGS                         : BPS DURATION NUMBER_OF_FRAMES NUMBER_OF_BYTES
  18.  
  19. Video
  20. ID                                       : 1
  21. Format                                   : AVC
  22. Format/Info                              : Advanced Video Codec
  23. Format profile                           : High@L4.1
  24. Format settings, CABAC                   : Yes
  25. Format settings, ReFrames                : 8 frames
  26. Codec ID                                 : V_MPEG4/ISO/AVC
  27. Duration                                 : 1h 20mn
  28. Bit rate                                 : 5 386 Kbps
  29. Width                                    : 1 280 pixels
  30. Height                                   : 720 pixels
  31. Display aspect ratio                     : 16:9
  32. Frame rate mode                          : Constant
  33. Frame rate                               : 25.000 fps
  34. Color space                              : YUV
  35. Chroma subsampling                       : 4:2:0
  36. Bit depth                                : 8 bits
  37. Scan type                                : Progressive
  38. Bits/(Pixel*Frame)                       : 0.234
  39. Stream size                              : 3.03 GiB (96%)
  40. Writing library                          : x264 core 152 r2851 ba24899
  41. Encoding settings                        : cabac=1 / ref=8 / deblock=1:-1:-1 / analyse=0x3:0x133 / me=umh / subme=9 / psy=1 / psy_rd=1.00:0.00 / mixed_ref=1 / me_range=16 / chroma_me=1 / trellis=2 / 8x8dct=1 / cqm=0 / deadzone=21,11 / fast_pskip=0 / chroma_qp_offset=-2 / threads=12 / lookahead_threads=1 / sliced_threads=0 / nr=0 / decimate=1 / interlaced=0 / bluray_compat=0 / constrained_intra=0 / bframes=5 / b_pyramid=2 / b_adapt=2 / b_bias=0 / direct=3 / weightb=1 / open_gop=0 / weightp=2 / keyint=250 / keyint_min=25 / scenecut=40 / intra_refresh=0 / rc_lookahead=60 / rc=crf / mbtree=1 / crf=21.0 / qcomp=0.60 / qpmin=0 / qpmax=69 / qpstep=4 / vbv_maxrate=62500 / vbv_bufsize=78125 / crf_max=0.0 / nal_hrd=none / filler=0 / ip_ratio=1.40 / aq=1:1.00
  42. Default                                  : Yes
  43. Forced                                   : No
  44.  
  45. Audio
  46. ID                                       : 2
  47. Format                                   : AC-3
  48. Format/Info                              : Audio Coding 3
  49. Mode extension                           : CM (complete main)
  50. Format settings, Endianness              : Big
  51. Codec ID                                 : A_AC3
  52. Duration                                 : 1h 20mn
  53. Bit rate mode                            : Constant
  54. Bit rate                                 : 128 Kbps
  55. Channel(s)                               : 2 channels
  56. Channel positions                        : Front: L R
  57. Sampling rate                            : 48.0 KHz
  58. Bit depth                                : 16 bits
  59. Compression mode                         : Lossy
  60. Stream size                              : 73.7 MiB (2%)
  61. Default                                  : Yes
  62. Forced                                   : No
RAW Paste Data
Top