SHARE
TWEET

Untitled

Secasa Apr 8th, 2017 2 Never
Not a member of Pastebin yet? Sign Up, it unlocks many cool features!
  1. Format                                   : Matroska
  2. Format version                           : Version 2
  3. File size                                : 1.71 GiB
  4. Duration                                 : 1h 32mn
  5. Overall bit rate                         : 2 652 Kbps
  6. Encoded date                             : UTC 2017-02-27 17:39:20
  7. Writing application                      : mkvmerge v5.8.0 ('No Sleep / Pillow') built on Sep  2 2012 15:37:04
  8. Writing library                          : libebml v1.2.3 + libmatroska v1.3.0
  9.  
  10. Video
  11. ID                                       : 1
  12. Format                                   : AVC
  13. Format/Info                              : Advanced Video Codec
  14. Format profile                           : High@L4.1
  15. Format settings, CABAC                   : Yes
  16. Format settings, ReFrames                : 16 frames
  17. Muxing mode                              : Header stripping
  18. Codec ID                                 : V_MPEG4/ISO/AVC
  19. Duration                                 : 1h 32mn
  20. Bit rate                                 : 2 311 Kbps
  21. Width                                    : 686 pixels
  22. Height                                   : 564 pixels
  23. Display aspect ratio                     : 4:3
  24. Original display aspect ratio            : 4:3
  25. Frame rate mode                          : Constant
  26. Frame rate                               : 25.000 fps
  27. Color space                              : YUV
  28. Chroma subsampling                       : 4:2:0
  29. Bit depth                                : 8 bits
  30. Scan type                                : Progressive
  31. Bits/(Pixel*Frame)                       : 0.239
  32. Stream size                              : 1.49 GiB (87%)
  33. Writing library                          : x264 core 148 r2665 a01e339
  34. Encoding settings                        : cabac=1 / ref=16 / deblock=1:-1:-1 / analyse=0x3:0x133 / me=umh / subme=10 / psy=1 / psy_rd=1.00:0.15 / mixed_ref=1 / me_range=24 / chroma_me=0 / trellis=2 / 8x8dct=1 / cqm=0 / deadzone=21,11 / fast_pskip=1 / chroma_qp_offset=-3 / threads=12 / lookahead_threads=2 / sliced_threads=0 / nr=0 / decimate=1 / interlaced=0 / bluray_compat=0 / constrained_intra=0 / bframes=8 / b_pyramid=2 / b_adapt=2 / b_bias=0 / direct=3 / weightb=1 / open_gop=0 / weightp=2 / keyint=250 / keyint_min=25 / scenecut=40 / intra_refresh=0 / rc_lookahead=60 / rc=crf / mbtree=1 / crf=17.0 / qcomp=0.60 / qpmin=0 / qpmax=69 / qpstep=4 / ip_ratio=1.40 / aq=1:1.00
  35. Language                                 : English
  36. Default                                  : Yes
  37. Forced                                   : No
  38.  
  39. Audio #1
  40. ID                                       : 2
  41. Format                                   : MPEG Audio
  42. Format version                           : Version 1
  43. Format profile                           : Layer 3
  44. Muxing mode                              : Header stripping
  45. Codec ID                                 : A_MPEG/L3
  46. Codec ID/Hint                            : MP3
  47. Duration                                 : 1h 32mn
  48. Bit rate mode                            : Constant
  49. Bit rate                                 : 96.0 Kbps
  50. Channel count                            : 2 channels
  51. Sampling rate                            : 48.0 KHz
  52. Compression mode                         : Lossy
  53. Stream size                              : 63.6 MiB (4%)
  54. Title                                    : Audio
  55. Writing library                          : LAME3.92
  56. Encoding settings                        : -m s -V 4 -q 2 -lowpass 10.7 -b 96
  57. Language                                 : Spanish
  58. Default                                  : Yes
  59. Forced                                   : No
  60.  
  61. Audio #2
  62. ID                                       : 3
  63. Format                                   : AC-3
  64. Format/Info                              : Audio Coding 3
  65. Mode extension                           : CM (complete main)
  66. Format settings, Endianness              : Big
  67. Muxing mode                              : Header stripping
  68. Codec ID                                 : A_AC3
  69. Duration                                 : 1h 32mn
  70. Bit rate mode                            : Constant
  71. Bit rate                                 : 192 Kbps
  72. Channel count                            : 2 channels
  73. Channel positions                        : Front: L R
  74. Sampling rate                            : 48.0 KHz
  75. Bit depth                                : 16 bits
  76. Compression mode                         : Lossy
  77. Stream size                              : 127 MiB (7%)
  78. Title                                    : Audio
  79. Language                                 : English
  80. Default                                  : No
  81. Forced                                   : No
  82.  
  83. Text
  84. ID                                       : 4
  85. Format                                   : UTF-8
  86. Codec ID                                 : S_TEXT/UTF8
  87. Codec ID/Info                            : UTF-8 Plain Text
  88. Title                                    : Subtítulos
  89. Language                                 : Spanish
  90. Default                                  : Yes
  91. Forced                                   : No
RAW Paste Data
Pastebin PRO Summer Special!
Get 40% OFF on Pastebin PRO accounts!
Top