SHARE
TWEET

cue sheet for A View to a Kill 2003 remaster

a guest Apr 2nd, 2018 139 Never
Not a member of Pastebin yet? Sign Up, it unlocks many cool features!
  1. REM URL https://musicbrainz.org/cdtoc/Fe1sVdPoxa7V9LoPRKOx0BF67n0-
  2. REM GENRE Soundtrack
  3. REM DATE 1985
  4. REM COMMENT 2003 remaster
  5. PERFORMER "John Barry"
  6. TITLE "A View to a Kill"
  7. REM REPLAYGAIN_ALBUM_GAIN -0.88 dB
  8. REM REPLAYGAIN_ALBUM_PEAK 1.000000
  9. FILE "John Barry - A View To A Kill.flac" WAVE
  10.   TRACK 01 AUDIO
  11.     TITLE "Main Title - A View to a Kill"
  12.     PERFORMER "Duran Duran"
  13.     SONGWRITER "Duran Duran & John Barry"
  14.     REM REPLAYGAIN_TRACK_GAIN -3.01 dB
  15.     REM REPLAYGAIN_TRACK_PEAK 1.000000
  16.     INDEX 01 00:00:00
  17.   TRACK 02 AUDIO
  18.     TITLE "Snow Job"
  19.     PERFORMER "John Barry"
  20.     SONGWRITER "John Barry"
  21.     REM REPLAYGAIN_TRACK_GAIN -0.94 dB
  22.     REM REPLAYGAIN_TRACK_PEAK 0.794434
  23.     INDEX 01 03:36:37
  24.   TRACK 03 AUDIO
  25.     TITLE "May Day Jumps"
  26.     PERFORMER "John Barry"
  27.     SONGWRITER "John Barry"
  28.     REM REPLAYGAIN_TRACK_GAIN +0.98 dB
  29.     REM REPLAYGAIN_TRACK_PEAK 0.621185
  30.     INDEX 01 06:05:47
  31.   TRACK 04 AUDIO
  32.     TITLE "Bond Meets Stacey (A View to a Kill)"
  33.     PERFORMER "John Barry"
  34.     SONGWRITER "John Barry"
  35.     REM REPLAYGAIN_TRACK_GAIN +2.13 dB
  36.     REM REPLAYGAIN_TRACK_PEAK 0.530548
  37.     INDEX 01 08:57:55
  38.   TRACK 05 AUDIO
  39.     TITLE "Pegasus' Stable"
  40.     PERFORMER "John Barry"
  41.     SONGWRITER "John Barry"
  42.     REM REPLAYGAIN_TRACK_GAIN +3.57 dB
  43.     REM REPLAYGAIN_TRACK_PEAK 0.468872
  44.     INDEX 01 11:29:25
  45.   TRACK 06 AUDIO
  46.     TITLE "Tibbett Gets Washed Out"
  47.     PERFORMER "John Barry"
  48.     SONGWRITER "John Barry"
  49.     REM REPLAYGAIN_TRACK_GAIN +3.84 dB
  50.     REM REPLAYGAIN_TRACK_PEAK 0.759033
  51.     INDEX 01 14:53:07
  52.   TRACK 07 AUDIO
  53.     TITLE "Airship to Silicon Valley"
  54.     PERFORMER "John Barry"
  55.     SONGWRITER "John Barry"
  56.     REM REPLAYGAIN_TRACK_GAIN +1.69 dB
  57.     REM REPLAYGAIN_TRACK_PEAK 0.507111
  58.     INDEX 01 16:36:25
  59.   TRACK 08 AUDIO
  60.     TITLE "He's Dangerous"
  61.     PERFORMER "John Barry"
  62.     SONGWRITER "John Barry"
  63.     REM REPLAYGAIN_TRACK_GAIN -3.60 dB
  64.     REM REPLAYGAIN_TRACK_PEAK 0.875641
  65.     INDEX 01 19:10:42
  66.   TRACK 09 AUDIO
  67.     TITLE "Bond Underwater"
  68.     PERFORMER "John Barry"
  69.     SONGWRITER "John Barry"
  70.     REM REPLAYGAIN_TRACK_GAIN +1.38 dB
  71.     REM REPLAYGAIN_TRACK_PEAK 0.851044
  72.     INDEX 01 21:27:07
  73.   TRACK 10 AUDIO
  74.     TITLE "Wine with Stacey (A View to a Kill)"
  75.     PERFORMER "John Barry"
  76.     SONGWRITER "John Barry"
  77.     REM REPLAYGAIN_TRACK_GAIN -0.13 dB
  78.     REM REPLAYGAIN_TRACK_PEAK 0.495422
  79.     INDEX 01 24:02:65
  80.   TRACK 11 AUDIO
  81.     TITLE "Bond Escapes Roller"
  82.     PERFORMER "John Barry"
  83.     SONGWRITER "John Barry"
  84.     REM REPLAYGAIN_TRACK_GAIN -0.58 dB
  85.     REM REPLAYGAIN_TRACK_PEAK 0.693604
  86.     INDEX 01 25:57:70
  87.   TRACK 12 AUDIO
  88.     TITLE "Destroy Silicon Valley"
  89.     PERFORMER "John Barry"
  90.     SONGWRITER "John Barry"
  91.     REM REPLAYGAIN_TRACK_GAIN -0.38 dB
  92.     REM REPLAYGAIN_TRACK_PEAK 0.748413
  93.     INDEX 01 27:22:35
  94.   TRACK 13 AUDIO
  95.     TITLE "May Day Bombs Out"
  96.     PERFORMER "John Barry"
  97.     SONGWRITER "John Barry"
  98.     REM REPLAYGAIN_TRACK_GAIN +1.64 dB
  99.     REM REPLAYGAIN_TRACK_PEAK 0.796478
  100.     INDEX 01 29:46:42
  101.   TRACK 14 AUDIO
  102.     TITLE "Golden Gate Fight"
  103.     PERFORMER "John Barry"
  104.     SONGWRITER "John Barry"
  105.     REM REPLAYGAIN_TRACK_GAIN -2.92 dB
  106.     REM REPLAYGAIN_TRACK_PEAK 0.882141
  107.     INDEX 01 32:49:07
  108.   TRACK 15 AUDIO
  109.     TITLE "End Title - A View to a Kill"
  110.     PERFORMER "Duran Duran"
  111.     SONGWRITER "Duran Duran & John Barry"
  112.     REM REPLAYGAIN_TRACK_GAIN -3.23 dB
  113.     REM REPLAYGAIN_TRACK_PEAK 0.999756
  114.     INDEX 01 36:20:52
RAW Paste Data
We use cookies for various purposes including analytics. By continuing to use Pastebin, you agree to our use of cookies as described in the Cookies Policy. OK, I Understand
 
Top