SHARE
TWEET

sk8

TheRealDudeMe Oct 10th, 2019 74 Never
Not a member of Pastebin yet? Sign Up, it unlocks many cool features!
  1. General
  2. Unique ID                                : 210088323355515285269050908997681405028 (0x9E0D8A0F047DAF29828B5925C9DFDC64)
  3. Complete name                            : Sk8.Dawg.2018.1080p.WEB-DL.DD5.1.H264-CMRG
  4. Format                                   : Matroska
  5. Format version                           : Version 4
  6. File size                                : 3.46 GiB
  7. Duration                                 : 1 h 30 min
  8. Overall bit rate                         : 5 480 kb/s
  9. Movie name                               : CMRG
  10. Encoded date                             : UTC 2019-10-09 18:23:07
  11. Writing application                      : mkvmerge v11.0.0 ('Alive') 64bit
  12. Writing library                          : libebml v1.3.4 + libmatroska v1.4.5
  13.  
  14. Video
  15. ID                                       : 1
  16. Format                                   : AVC
  17. Format/Info                              : Advanced Video Codec
  18. Format profile                           : High@L4
  19. Format settings                          : CABAC / 4 Ref Frames
  20. Format settings, CABAC                   : Yes
  21. Format settings, Reference frames        : 4 frames
  22. Codec ID                                 : V_MPEG4/ISO/AVC
  23. Duration                                 : 1 h 30 min
  24. Bit rate                                 : 5 094 kb/s
  25. Width                                    : 1 908 pixels
  26. Height                                   : 1 068 pixels
  27. Display aspect ratio                     : 16:9
  28. Frame rate mode                          : Constant
  29. Frame rate                               : 23.976 (24000/1001) FPS
  30. Color space                              : YUV
  31. Chroma subsampling                       : 4:2:0
  32. Bit depth                                : 8 bits
  33. Scan type                                : Progressive
  34. Bits/(Pixel*Frame)                       : 0.104
  35. Stream size                              : 3.21 GiB (93%)
  36. Language                                 : English
  37. Default                                  : Yes
  38. Forced                                   : No
  39. Color range                              : Limited
  40. Color primaries                          : BT.709
  41. Transfer characteristics                 : BT.709
  42. Matrix coefficients                      : BT.709
  43.  
  44. Audio
  45. ID                                       : 2
  46. Format                                   : AC-3
  47. Format/Info                              : Audio Coding 3
  48. Commercial name                          : Dolby Digital
  49. Codec ID                                 : A_AC3
  50. Duration                                 : 1 h 30 min
  51. Bit rate mode                            : Constant
  52. Bit rate                                 : 384 kb/s
  53. Channel(s)                               : 6 channels
  54. Channel layout                           : L R C LFE Ls Rs
  55. Sampling rate                            : 48.0 kHz
  56. Frame rate                               : 31.250 FPS (1536 SPF)
  57. Bit depth                                : 16 bits
  58. Compression mode                         : Lossy
  59. Delay relative to video                  : -42 ms
  60. Stream size                              : 248 MiB (7%)
  61. Language                                 : English
  62. Service kind                             : Complete Main
  63. Default                                  : Yes
  64. Forced                                   : No
  65.  
  66. Menu
  67. 00:00:00.000                             : en:1
  68. 00:09:35.000                             : en:2
  69. 00:19:25.000                             : en:3
  70. 00:32:08.000                             : en:4
  71. 00:43:05.000                             : en:5
  72. 00:52:06.000                             : en:6
  73. 01:02:38.000                             : en:7
  74. 01:12:52.000                             : en:8
  75. 01:21:42.000                             : en:9
  76. 01:27:10.000                             : en:10
RAW Paste Data
We use cookies for various purposes including analytics. By continuing to use Pastebin, you agree to our use of cookies as described in the Cookies Policy. OK, I Understand
 
Top