SHARE
TWEET

Fear the Walking Dead: Season 5 1080p WEB-DL

dirtyharrys Jun 15th, 2019 (edited) 78 Never
Not a member of Pastebin yet? Sign Up, it unlocks many cool features!
  1. General
  2. Unique ID                   : 131448828508046968409090025885217608781 (0x62E41F9D8DB82DA1A507532F56C0544D)
  3. Complete name               : E:\Fear.the.Walking.Dead.S05\FtWD-S05E01-265DUAL.mkv
  4. Format                      : Matroska
  5. Format version              : Version 4
  6. File size                   : 1.63 GiB
  7. Duration                    : 45 min 44 s
  8. Overall bit rate            : 5 108 kb/s
  9. Movie name                  : Fear the Walking Dead S05E01 / Fear the Walking Dead: Season Five
  10. Description                 : Episode 01: "Here to Help"
  11. Encoded date                : UTC 2019-06-19 08:52:18
  12. Writing application         : mkvmerge v30.1.0 ('Forever And More') 32-bit
  13. Writing library             : libebml v1.3.6 + libmatroska v1.4.9
  14. Copyright                   : Movies HDs 2019
  15. ARTIST                      : HarshLearner
  16.  
  17. Video
  18. ID                          : 1
  19. Format                      : HEVC
  20. Format/Info                 : High Efficiency Video Coding
  21. Format profile              : Main 10@L4@Main
  22. Codec ID                    : V_MPEGH/ISO/HEVC
  23. Duration                    : 45 min 44 s
  24. Bit rate                    : 4 210 kb/s
  25. Width                       : 1 920 pixels
  26. Height                      : 1 080 pixels
  27. Display aspect ratio        : 16:9
  28. Frame rate mode             : Constant
  29. Frame rate                  : 23.976 (24000/1001) FPS
  30. Color space                 : YUV
  31. Chroma subsampling          : 4:2:0
  32. Bit depth                   : 10 bits
  33. Bits/(Pixel*Frame)          : 0.085
  34. Stream size                 : 1.34 GiB (82%)
  35. Title                       : S05E01: Here to Help
  36. Writing library             : x265 3.0_Au+27-3f4fb9a2ac68:[Windows][MSVC 1920][64 bit] 10bit
  37. Encoding settings           : cpuid=1111039 / frame-threads=2 / numa-pools=4 / wpp / no-pmode / no-pme / no-psnr / no-ssim / log-level=2 / input-csp=1 / input-res=1920x1080 / interlace=0 / total-frames=65795 / level-idc=0 / high-tier=1 / uhd-bd=0 / ref=4 / no-allow-non-conformance / no-repeat-headers / annexb / no-aud / no-hrd / info / hash=0 / no-temporal-layers / open-gop / min-keyint=23 / keyint=250 / gop-lookahead=0 / bframes=8 / b-adapt=2 / b-pyramid / bframe-bias=0 / rc-lookahead=50 / lookahead-slices=4 / scenecut=40 / radl=0 / no-splice / no-intra-refresh / ctu=64 / min-cu-size=8 / no-rect / no-amp / max-tu-size=32 / tu-inter-depth=1 / tu-intra-depth=1 / limit-tu=0 / rdoq-level=2 / dynamic-rd=0.00 / no-ssim-rd / signhide / no-tskip / nr-intra=0 / nr-inter=0 / no-constrained-intra / no-strong-intra-smoothing / max-merge=3 / limit-refs=3 / limit-modes / me=3 / subme=3 / merange=57 / temporal-mvp / weightp / no-weightb / no-analyze-src-pics / deblock=1:1 / no-sao / no-sao-non-deblock / rd=4 / no-early-skip / no-rskip / no-fast-intra / no-tskip-fast / no-cu-lossless / no-b-intra / no-splitrd-skip / rdpenalty=0 / psy-rd=1.40 / psy-rdoq=1.00 / no-rd-refine / no-lossless / cbqpoffs=0 / crqpoffs=0 / rc=crf / crf=21.0 / qcomp=0.60 / qpstep=4 / stats-write=0 / stats-read=0 / ipratio=1.40 / pbratio=1.30 / aq-mode=2 / aq-strength=1.00 / cutree / zone-count=0 / no-strict-cbr / qg-size=32 / no-rc-grain / qpmax=69 / qpmin=0 / no-const-vbv / sar=0 / overscan=0 / videoformat=5 / range=0 / colorprim=2 / transfer=2 / colormatrix=2 / chromaloc=0 / display-window=0 / max-cll=0,0 / min-luma=0 / max-luma=1023 / log2-max-poc-lsb=8 / vui-timing-info / vui-hrd-info / slices=1 / no-opt-qp-pps / no-opt-ref-list-length-pps / no-multi-pass-opt-rps / scenecut-bias=0.05 / no-opt-cu-delta-qp / no-aq-motion / no-hdr / no-hdr-opt / no-dhdr10-opt / no-idr-recovery-sei / analysis-reuse-level=5 / scale-factor=0 / refine-intra=0 / refine-inter=0 / refine-mv=0 / refine-ctu-distortion=0 / no-limit-sao / ctu-info=0 / no-lowpass-dct / refine-analysis-type=0 / copy-pic=1 / max-ausize-factor=1.0 / no-dynamic-refine / no-single-sei / no-hevc-aq / no-svt / qp-adaptation-range=1.00
  38. Default                     : Yes
  39. Forced                      : No
  40.  
  41. Audio #1
  42. ID                          : 2
  43. Format                      : E-AC-3
  44. Format/Info                 : Enhanced AC-3
  45. Commercial name             : Dolby Digital Plus
  46. Codec ID                    : A_EAC3
  47. Duration                    : 45 min 44 s
  48. Bit rate mode               : Constant
  49. Bit rate                    : 640 kb/s
  50. Channel(s)                  : 6 channels
  51. Channel layout              : L R C LFE Ls Rs
  52. Sampling rate               : 48.0 kHz
  53. Frame rate                  : 31.250 FPS (1536 SPF)
  54. Compression mode            : Lossy
  55. Stream size                 : 209 MiB (13%)
  56. Language                    : English
  57. Service kind                : Complete Main
  58. Default                     : No
  59. Forced                      : No
  60.  
  61. Audio #2
  62. ID                          : 3
  63. Format                      : AC-3
  64. Format/Info                 : Audio Coding 3
  65. Commercial name             : Dolby Digital
  66. Codec ID                    : A_AC3
  67. Duration                    : 45 min 41 s
  68. Bit rate mode               : Constant
  69. Bit rate                    : 256 kb/s
  70. Channel(s)                  : 2 channels
  71. Channel layout              : L R
  72. Sampling rate               : 48.0 kHz
  73. Frame rate                  : 31.250 FPS (1536 SPF)
  74. Bit depth                   : 16 bits
  75. Compression mode            : Lossy
  76. Stream size                 : 83.7 MiB (5%)
  77. Language                    : Spanish
  78. Service kind                : Complete Main
  79. Default                     : Yes
  80. Forced                      : Yes
  81.  
  82. Text #1
  83. ID                          : 4
  84. Format                      : UTF-8
  85. Codec ID                    : S_TEXT/UTF8
  86. Codec ID/Info               : UTF-8 Plain Text
  87. Duration                    : 44 min 52 s
  88. Bit rate                    : 42 b/s
  89. Count of elements           : 567
  90. Stream size                 : 14.1 KiB (0%)
  91. Language                    : English
  92. Default                     : No
  93. Forced                      : No
  94.  
  95. Text #2
  96. ID                          : 5
  97. Format                      : UTF-8
  98. Codec ID                    : S_TEXT/UTF8
  99. Codec ID/Info               : UTF-8 Plain Text
  100. Duration                    : 44 min 51 s
  101. Bit rate                    : 44 b/s
  102. Count of elements           : 548
  103. Stream size                 : 14.6 KiB (0%)
  104. Language                    : Spanish
  105. Default                     : Yes
  106. Forced                      : Yes
RAW Paste Data
We use cookies for various purposes including analytics. By continuing to use Pastebin, you agree to our use of cookies as described in the Cookies Policy. OK, I Understand
Not a member of Pastebin yet?
Sign Up, it unlocks many cool features!
 
Top