SHARE
TWEET

Untitled

Neo_Chip Feb 16th, 2020 72 Never
Not a member of Pastebin yet? Sign Up, it unlocks many cool features!
  1. dBpoweramp Release 16.2 Digital Audio Extraction Log from Friday, March 8, 2019 22:25
  2.  
  3. Drive & Settings
  4. ----------------
  5.  
  6. Ripping with drive 'F:   [TSSTcorp - CDDVDW SE-218GN ]',  Drive offset: 6,  Overread Lead-in/out: No
  7. AccurateRip: Active,  Using C2: No,  Cache: 1024 KB,  FUA Cache Invalidate: No
  8. Pass 1 Drive Speed: Max,  Pass 2 Drive Speed: Max
  9. Ultra::  Vary Drive Speed: No,  Min Passes: 3,  Max Passes: 6,  Finish After Clean Passes: 2
  10. Bad Sector Re-rip::  Drive Speed: Max,  Maximum Re-reads: 34
  11.  
  12. Encoder: FLAC -compression-level-5 -verify
  13. DSP Effects / Actions: -dspeffect1="CUE Sheet - Multiple Files= -UTF8"
  14.  
  15. Extraction Log
  16. --------------
  17.  
  18. Track 1:  Ripped LBA 0 to 8576 (1:54) in 0:10. Filename: C:\dBpoweramp\01 - ON THE TUBE.flac
  19.   AccurateRip: Accurate (confidence 14)     [Pass 1]
  20.   CRC32: 4ABD60E8     AccurateRip CRC: 0193AF21 (CRCv2)     [DiscID: 035-005768e0-085cf902-0c104323-1]
  21.   AccurateRip Verified Confidence 14 [CRCv2 193af21]
  22.   AccurateRip Verified Confidence 6 [CRCv1 6e286453]
  23.  
  24. Track 2:  Ripped LBA 8576 to 17821 (2:03) in 0:10. Filename: C:\dBpoweramp\02 - EVO66.flac
  25.   AccurateRip: Accurate (confidence 14)     [Pass 1]
  26.   CRC32: E545A5AF     AccurateRip CRC: 60C04EBC (CRCv2)     [DiscID: 035-005768e0-085cf902-0c104323-2]
  27.   AccurateRip Verified Confidence 14 [CRCv2 60c04ebc]
  28.   AccurateRip Verified Confidence 6 [CRCv1 1835e992]
  29.  
  30. Track 3:  Ripped LBA 17821 to 29936 (2:41) in 0:13. Filename: C:\dBpoweramp\03 - believe...?.flac
  31.   AccurateRip: Accurate (confidence 14)     [Pass 1]
  32.   CRC32: 4C8FA617     AccurateRip CRC: 36F625D3 (CRCv2)     [DiscID: 035-005768e0-085cf902-0c104323-3]
  33.   AccurateRip Verified Confidence 14 [CRCv2 36f625d3]
  34.   AccurateRip Verified Confidence 6 [CRCv1 677638d5]
  35.  
  36. Track 4:  Ripped LBA 29936 to 39389 (2:06) in 0:09. Filename: C:\dBpoweramp\04 - KING OF GROOVE.flac
  37.   AccurateRip: Accurate (confidence 14)     [Pass 1]
  38.   CRC32: 84FE0F7A     AccurateRip CRC: 526460A4 (CRCv2)     [DiscID: 035-005768e0-085cf902-0c104323-4]
  39.   AccurateRip Verified Confidence 14 [CRCv2 526460a4]
  40.   AccurateRip Verified Confidence 6 [CRCv1 fdace80]
  41.  
  42. Track 5:  Ripped LBA 39389 to 48315 (1:59) in 0:08. Filename: C:\dBpoweramp\05 - ROK DA WORLD.flac
  43.   AccurateRip: Accurate (confidence 14)     [Pass 1]
  44.   CRC32: 7D7A4F1D     AccurateRip CRC: 29728D8D (CRCv2)     [DiscID: 035-005768e0-085cf902-0c104323-5]
  45.   AccurateRip Verified Confidence 14 [CRCv2 29728d8d]
  46.   AccurateRip Verified Confidence 6 [CRCv1 dc94d7cd]
  47.  
  48. Track 6:  Ripped LBA 48315 to 57907 (2:07) in 0:09. Filename: C:\dBpoweramp\06 - Kecak.flac
  49.   AccurateRip: Accurate (confidence 14)     [Pass 1]
  50.   CRC32: 1D7219E2     AccurateRip CRC: 1503CD65 (CRCv2)     [DiscID: 035-005768e0-085cf902-0c104323-6]
  51.   AccurateRip Verified Confidence 14 [CRCv2 1503cd65]
  52.   AccurateRip Verified Confidence 6 [CRCv1 90e8e4ee]
  53.  
  54. Track 7:  Ripped LBA 57907 to 66527 (1:54) in 0:07. Filename: C:\dBpoweramp\07 - Click Again.flac
  55.   AccurateRip: Accurate (confidence 14)     [Pass 1]
  56.   CRC32: 8A52B6EA     AccurateRip CRC: A5367987 (CRCv2)     [DiscID: 035-005768e0-085cf902-0c104323-7]
  57.   AccurateRip Verified Confidence 14 [CRCv2 a5367987]
  58.   AccurateRip Verified Confidence 6 [CRCv1 b6010fbc]
  59.  
  60. Track 8:  Ripped LBA 66527 to 75368 (1:57) in 0:07. Filename: C:\dBpoweramp\08 - Be quiet.flac
  61.   AccurateRip: Accurate (confidence 14)     [Pass 1]
  62.   CRC32: 589F7CB5     AccurateRip CRC: 2EA32D35 (CRCv2)     [DiscID: 035-005768e0-085cf902-0c104323-8]
  63.   AccurateRip Verified Confidence 14 [CRCv2 2ea32d35]
  64.   AccurateRip Verified Confidence 6 [CRCv1 ea410f0f]
  65.  
  66. Track 9:  Ripped LBA 75368 to 85041 (2:08) in 0:08. Filename: C:\dBpoweramp\09 - gigadelic.flac
  67.   AccurateRip: Accurate (confidence 14)     [Pass 1]
  68.   CRC32: 4A7C0A60     AccurateRip CRC: 5458BF78 (CRCv2)     [DiscID: 035-005768e0-085cf902-0c104323-9]
  69.   AccurateRip Verified Confidence 14 [CRCv2 5458bf78]
  70.   AccurateRip Verified Confidence 6 [CRCv1 fcc249c1]
  71.  
  72. Track 10:  Ripped LBA 85041 to 94680 (2:08) in 0:08. Filename: C:\dBpoweramp\10 - Secret of Love.flac
  73.   AccurateRip: Accurate (confidence 14)     [Pass 1]
  74.   CRC32: 9E141C13     AccurateRip CRC: C766FDFC (CRCv2)     [DiscID: 035-005768e0-085cf902-0c104323-10]
  75.   AccurateRip Verified Confidence 14 [CRCv2 c766fdfc]
  76.   AccurateRip Verified Confidence 6 [CRCv1 c9bd0ad7]
  77.  
  78. Track 11:  Ripped LBA 94680 to 102899 (1:49) in 0:06. Filename: C:\dBpoweramp\11 - INJECTION OF LOVE.flac
  79.   AccurateRip: Accurate (confidence 14)     [Pass 1]
  80.   CRC32: 04602CCF     AccurateRip CRC: 511C58C4 (CRCv2)     [DiscID: 035-005768e0-085cf902-0c104323-11]
  81.   AccurateRip Verified Confidence 14 [CRCv2 511c58c4]
  82.   AccurateRip Verified Confidence 6 [CRCv1 22e46b5]
  83.  
  84. Track 12:  Ripped LBA 102899 to 113499 (2:21) in 0:08. Filename: C:\dBpoweramp\12 - The Hope of Tomorrow.flac
  85.   AccurateRip: Accurate (confidence 14)     [Pass 1]
  86.   CRC32: 0B65FD53     AccurateRip CRC: 5310B9C0 (CRCv2)     [DiscID: 035-005768e0-085cf902-0c104323-12]
  87.   AccurateRip Verified Confidence 14 [CRCv2 5310b9c0]
  88.   AccurateRip Verified Confidence 6 [CRCv1 cea24cd5]
  89.  
  90. Track 13:  Ripped LBA 113499 to 122732 (2:03) in 0:07. Filename: C:\dBpoweramp\13 - Wonder Bullfighter.flac
  91.   AccurateRip: Accurate (confidence 14)     [Pass 1]
  92.   CRC32: 20BD1A69     AccurateRip CRC: BAA91E6A (CRCv2)     [DiscID: 035-005768e0-085cf902-0c104323-13]
  93.   AccurateRip Verified Confidence 14 [CRCv2 baa91e6a]
  94.   AccurateRip Verified Confidence 6 [CRCv1 9e3bb33]
  95.  
  96. Track 14:  Ripped LBA 122732 to 131919 (2:02) in 0:07. Filename: C:\dBpoweramp\14 - Back to the Dance Floor.flac
  97.   AccurateRip: Accurate (confidence 14)     [Pass 1]
  98.   CRC32: B1E10265     AccurateRip CRC: 7E42301B (CRCv2)     [DiscID: 035-005768e0-085cf902-0c104323-14]
  99.   AccurateRip Verified Confidence 14 [CRCv2 7e42301b]
  100.   AccurateRip Verified Confidence 6 [CRCv1 c5a439e2]
  101.  
  102. Track 15:  Ripped LBA 131919 to 140004 (1:47) in 0:06. Filename: C:\dBpoweramp\15 - D.A.N.C.E.!.flac
  103.   AccurateRip: Accurate (confidence 14)     [Pass 1]
  104.   CRC32: 30FA454E     AccurateRip CRC: 396C8537 (CRCv2)     [DiscID: 035-005768e0-085cf902-0c104323-15]
  105.   AccurateRip Verified Confidence 14 [CRCv2 396c8537]
  106.   AccurateRip Verified Confidence 6 [CRCv1 d4eb3f2c]
  107.  
  108. Track 16:  Ripped LBA 140004 to 147968 (1:46) in 0:05. Filename: C:\dBpoweramp\16 - KI・SE・KI(Ⅱ DX RED EDIT).flac
  109.   AccurateRip: Accurate (confidence 14)     [Pass 1]
  110.   CRC32: 6BAF677F     AccurateRip CRC: 4BEB7098 (CRCv2)     [DiscID: 035-005768e0-085cf902-0c104323-16]
  111.   AccurateRip Verified Confidence 14 [CRCv2 4beb7098]
  112.   AccurateRip Verified Confidence 6 [CRCv1 f018dd4e]
  113.  
  114. Track 17:  Ripped LBA 147968 to 157204 (2:03) in 0:06. Filename: C:\dBpoweramp\17 - Don't be afraid myself.flac
  115.   AccurateRip: Accurate (confidence 14)     [Pass 1]
  116.   CRC32: B737C671     AccurateRip CRC: 01D3597D (CRCv2)     [DiscID: 035-005768e0-085cf902-0c104323-17]
  117.   AccurateRip Verified Confidence 14 [CRCv2 1d3597d]
  118.   AccurateRip Verified Confidence 6 [CRCv1 bc025fc]
  119.  
  120. Track 18:  Ripped LBA 157204 to 165927 (1:56) in 0:06. Filename: C:\dBpoweramp\18 - PERFECTWORLD.flac
  121.   AccurateRip: Accurate (confidence 14)     [Pass 1]
  122.   CRC32: 597456BF     AccurateRip CRC: D555C3D9 (CRCv2)     [DiscID: 035-005768e0-085cf902-0c104323-18]
  123.   AccurateRip Verified Confidence 14 [CRCv2 d555c3d9]
  124.   AccurateRip Verified Confidence 5 [CRCv1 cc6b410e]
  125.  
  126. Track 19:  Ripped LBA 165927 to 174081 (1:48) in 0:05. Filename: C:\dBpoweramp\19 - listen to yourself.flac
  127.   AccurateRip: Accurate (confidence 14)     [Pass 1]
  128.   CRC32: AF676FFC     AccurateRip CRC: B9769782 (CRCv2)     [DiscID: 035-005768e0-085cf902-0c104323-19]
  129.   AccurateRip Verified Confidence 14 [CRCv2 b9769782]
  130.   AccurateRip Verified Confidence 6 [CRCv1 ac0d89f8]
  131.  
  132. Track 20:  Ripped LBA 174081 to 182692 (1:54) in 0:05. Filename: C:\dBpoweramp\20 - 惑 -perplexity-.flac
  133.   AccurateRip: Accurate (confidence 14)     [Pass 1]
  134.   CRC32: 9B9EA383     AccurateRip CRC: C28A6BA6 (CRCv2)     [DiscID: 035-005768e0-085cf902-0c104323-20]
  135.   AccurateRip Verified Confidence 14 [CRCv2 c28a6ba6]
  136.   AccurateRip Verified Confidence 6 [CRCv1 2c053ec1]
  137.  
  138. Track 21:  Ripped LBA 182692 to 190915 (1:49) in 0:05. Filename: C:\dBpoweramp\21 - TEXTURE.flac
  139.   AccurateRip: Accurate (confidence 14)     [Pass 1]
  140.   CRC32: F9870615     AccurateRip CRC: BB8D5373 (CRCv2)     [DiscID: 035-005768e0-085cf902-0c104323-21]
  141.   AccurateRip Verified Confidence 14 [CRCv2 bb8d5373]
  142.   AccurateRip Verified Confidence 6 [CRCv1 d12bad11]
  143.  
  144. Track 22:  Ripped LBA 190915 to 198826 (1:45) in 0:05. Filename: C:\dBpoweramp\22 - FAKE TIME.flac
  145.   AccurateRip: Accurate (confidence 14)     [Pass 1]
  146.   CRC32: 97BF1114     AccurateRip CRC: 38281981 (CRCv2)     [DiscID: 035-005768e0-085cf902-0c104323-22]
  147.   AccurateRip Verified Confidence 14 [CRCv2 38281981]
  148.   AccurateRip Verified Confidence 5 [CRCv1 4fe6dadd]
  149.  
  150. Track 23:  Ripped LBA 198826 to 207118 (1:50) in 0:05. Filename: C:\dBpoweramp\23 - Fly Away To India.flac
  151.   AccurateRip: Accurate (confidence 14)     [Pass 1]
  152.   CRC32: 424F3D57     AccurateRip CRC: 9039506D (CRCv2)     [DiscID: 035-005768e0-085cf902-0c104323-23]
  153.   AccurateRip Verified Confidence 14 [CRCv2 9039506d]
  154.   AccurateRip Verified Confidence 6 [CRCv1 7b844ad7]
  155.  
  156. Track 24:  Ripped LBA 207118 to 215156 (1:47) in 0:05. Filename: C:\dBpoweramp\24 - Raspberry♥ Heart(English version).flac
  157.   AccurateRip: Accurate (confidence 14)     [Pass 1]
  158.   CRC32: 2C3A62C9     AccurateRip CRC: 97E467B8 (CRCv2)     [DiscID: 035-005768e0-085cf902-0c104323-24]
  159.   AccurateRip Verified Confidence 14 [CRCv2 97e467b8]
  160.   AccurateRip Verified Confidence 6 [CRCv1 923668c4]
  161.  
  162. Track 25:  Ripped LBA 215156 to 224384 (2:03) in 0:05. Filename: C:\dBpoweramp\25 - AGEHA.flac
  163.   AccurateRip: Accurate (confidence 14)     [Pass 1]
  164.   CRC32: 801BC1DB     AccurateRip CRC: 6A59C0A2 (CRCv2)     [DiscID: 035-005768e0-085cf902-0c104323-25]
  165.   AccurateRip Verified Confidence 14 [CRCv2 6a59c0a2]
  166.   AccurateRip Verified Confidence 6 [CRCv1 16eb0003]
  167.  
  168. Track 26:  Ripped LBA 224384 to 234151 (2:10) in 0:06. Filename: C:\dBpoweramp\26 - HORIZON.flac
  169.   AccurateRip: Accurate (confidence 13)     [Pass 1]
  170.   CRC32: 9B45E8C0     AccurateRip CRC: 6F325EE8 (CRCv2)     [DiscID: 035-005768e0-085cf902-0c104323-26]
  171.   AccurateRip Verified Confidence 13 [CRCv2 6f325ee8]
  172.   AccurateRip Verified Confidence 6 [CRCv1 2c78dd5]
  173.  
  174. Track 27:  Ripped LBA 234151 to 241791 (1:41) in 0:04. Filename: C:\dBpoweramp\27 - BLOCKS.flac
  175.   AccurateRip: Accurate (confidence 13)     [Pass 1]
  176.   CRC32: 1F65AF77     AccurateRip CRC: 98160F49 (CRCv2)     [DiscID: 035-005768e0-085cf902-0c104323-27]
  177.   AccurateRip Verified Confidence 13 [CRCv2 98160f49]
  178.   AccurateRip Verified Confidence 6 [CRCv1 53e53b6d]
  179.  
  180. Track 28:  Ripped LBA 241791 to 251356 (2:07) in 0:05. Filename: C:\dBpoweramp\28 - awakening.flac
  181.   AccurateRip: Accurate (confidence 14)     [Pass 1]
  182.   CRC32: 7340FEAA     AccurateRip CRC: 8B8D9051 (CRCv2)     [DiscID: 035-005768e0-085cf902-0c104323-28]
  183.   AccurateRip Verified Confidence 14 [CRCv2 8b8d9051]
  184.   AccurateRip Verified Confidence 6 [CRCv1 ea109cc7]
  185.  
  186. Track 29:  Ripped LBA 251356 to 259360 (1:46) in 0:04. Filename: C:\dBpoweramp\29 - BREATH.flac
  187.   AccurateRip: Accurate (confidence 14)     [Pass 1]
  188.   CRC32: F9269099     AccurateRip CRC: FB8B3D78 (CRCv2)     [DiscID: 035-005768e0-085cf902-0c104323-29]
  189.   AccurateRip Verified Confidence 14 [CRCv2 fb8b3d78]
  190.   AccurateRip Verified Confidence 6 [CRCv1 31d2078c]
  191.  
  192. Track 30:  Ripped LBA 259360 to 268400 (2:00) in 0:05. Filename: C:\dBpoweramp\30 - AA.flac
  193.   AccurateRip: Accurate (confidence 14)     [Pass 1]
  194.   CRC32: F6409C61     AccurateRip CRC: 3B74A429 (CRCv2)     [DiscID: 035-005768e0-085cf902-0c104323-30]
  195.   AccurateRip Verified Confidence 14 [CRCv2 3b74a429]
  196.   AccurateRip Verified Confidence 6 [CRCv1 9c584bd3]
  197.  
  198. Track 31:  Ripped LBA 268400 to 276973 (1:54) in 0:04. Filename: C:\dBpoweramp\31 - Sphere.flac
  199.   AccurateRip: Accurate (confidence 14)     [Pass 1]
  200.   CRC32: 802C523B     AccurateRip CRC: 1B6F82DA (CRCv2)     [DiscID: 035-005768e0-085cf902-0c104323-31]
  201.   AccurateRip Verified Confidence 14 [CRCv2 1b6f82da]
  202.   AccurateRip Verified Confidence 6 [CRCv1 57e05e25]
  203.  
  204. Track 32:  Ripped LBA 276973 to 286005 (2:00) in 0:05. Filename: C:\dBpoweramp\32 - ULTiMΛTE.flac
  205.   AccurateRip: Accurate (confidence 14)     [Pass 1]
  206.   CRC32: 45FDBF11     AccurateRip CRC: 5312D61D (CRCv2)     [DiscID: 035-005768e0-085cf902-0c104323-32]
  207.   AccurateRip Verified Confidence 14 [CRCv2 5312d61d]
  208.   AccurateRip Verified Confidence 6 [CRCv1 2cc43038]
  209.  
  210. Track 33:  Ripped LBA 286005 to 295168 (2:02) in 0:05. Filename: C:\dBpoweramp\33 - HARMONY.flac
  211.   AccurateRip: Accurate (confidence 14)     [Pass 1]
  212.   CRC32: 76CA6BF2     AccurateRip CRC: E06230BB (CRCv2)     [DiscID: 035-005768e0-085cf902-0c104323-33]
  213.   AccurateRip Verified Confidence 14 [CRCv2 e06230bb]
  214.   AccurateRip Verified Confidence 6 [CRCv1 c9772438]
  215.  
  216. Track 34:  Ripped LBA 295168 to 304159 (1:59) in 0:05. Filename: C:\dBpoweramp\34 - NIGHT FLIGHT TO TOKYO.flac
  217.   AccurateRip: Accurate (confidence 14)     [Pass 1]
  218.   CRC32: 98267380     AccurateRip CRC: 81C83B7B (CRCv2)     [DiscID: 035-005768e0-085cf902-0c104323-34]
  219.   AccurateRip Verified Confidence 14 [CRCv2 81c83b7b]
  220.   AccurateRip Verified Confidence 6 [CRCv1 2813072b]
  221.  
  222. Track 35:  Ripped LBA 304159 to 312233 (1:47) in 0:04. Filename: C:\dBpoweramp\35 - RED ZONE.flac
  223.   AccurateRip: Accurate (confidence 14)     [Pass 1]
  224.   CRC32: E3C238E9     AccurateRip CRC: A804E5AA (CRCv2)     [DiscID: 035-005768e0-085cf902-0c104323-35]
  225.   AccurateRip Verified Confidence 14 [CRCv2 a804e5aa]
  226.   AccurateRip Verified Confidence 6 [CRCv1 7ccb51c7]
  227.  
  228. --------------
  229.  
  230. 35 Tracks Ripped Accurately
  231.  
  232.  
  233.  
  234.  
  235.  
  236. dBpoweramp Release 16.2 Digital Audio Extraction Log from Sunday, March 17, 2019 18:36
  237.  
  238. Drive & Settings
  239. ----------------
  240.  
  241. Ripping with drive 'F:   [TSSTcorp - CDDVDW SE-218GN ]',  Drive offset: 6,  Overread Lead-in/out: No
  242. AccurateRip: Active,  Using C2: No,  Cache: 1024 KB,  FUA Cache Invalidate: No
  243. Pass 1 Drive Speed: Max,  Pass 2 Drive Speed: Max
  244. Ultra::  Vary Drive Speed: No,  Min Passes: 3,  Max Passes: 6,  Finish After Clean Passes: 2
  245. Bad Sector Re-rip::  Drive Speed: Max,  Maximum Re-reads: 34
  246.  
  247. Encoder: FLAC -compression-level-5 -verify
  248. DSP Effects / Actions: -dspeffect1="CUE Sheet - Multiple Files= -UTF8"
  249.  
  250. Extraction Log
  251. --------------
  252.  
  253. Track 1:  Ripped LBA 0 to 9897 (2:11) in 0:11. Filename: C:\dBpoweramp\01 - spiral galaxy.flac
  254.   AccurateRip: Accurate (confidence 14)     [Pass 1]
  255.   CRC32: CE10E08E     AccurateRip CRC: 7A7A3D90 (CRCv2)     [DiscID: 028-003d4569-04e2be5c-7f11d31c-1]
  256.   AccurateRip Verified Confidence 14 [CRCv2 7a7a3d90]
  257.   AccurateRip Verified Confidence 6 [CRCv1 8f7b9b9]
  258.  
  259. Track 2:  Ripped LBA 9897 to 19970 (2:14) in 0:11. Filename: C:\dBpoweramp\02 - ANDROMEDA.flac
  260.   AccurateRip: Accurate (confidence 14)     [Pass 1]
  261.   CRC32: 83CC27F4     AccurateRip CRC: E2507FF9 (CRCv2)     [DiscID: 028-003d4569-04e2be5c-7f11d31c-2]
  262.   AccurateRip Verified Confidence 14 [CRCv2 e2507ff9]
  263.   AccurateRip Verified Confidence 6 [CRCv1 8a338984]
  264.  
  265. Track 3:  Ripped LBA 19970 to 29673 (2:09) in 0:10. Filename: C:\dBpoweramp\03 - RESONATE 1794.flac
  266.   AccurateRip: Accurate (confidence 14)     [Pass 1]
  267.   CRC32: 27FEFF62     AccurateRip CRC: 590D9B38 (CRCv2)     [DiscID: 028-003d4569-04e2be5c-7f11d31c-3]
  268.   AccurateRip Verified Confidence 14 [CRCv2 590d9b38]
  269.   AccurateRip Verified Confidence 5 [CRCv1 5568f689]
  270.  
  271. Track 4:  Ripped LBA 29673 to 39190 (2:06) in 0:09. Filename: C:\dBpoweramp\04 - earth scape.flac
  272.   AccurateRip: Accurate (confidence 14)     [Pass 1]
  273.   CRC32: 358A55AA     AccurateRip CRC: 546B1251 (CRCv2)     [DiscID: 028-003d4569-04e2be5c-7f11d31c-4]
  274.   AccurateRip Verified Confidence 14 [CRCv2 546b1251]
  275.   AccurateRip Verified Confidence 6 [CRCv1 be43f912]
  276.  
  277. Track 5:  Ripped LBA 39190 to 49357 (2:15) in 0:10. Filename: C:\dBpoweramp\05 - Les filles balancent.flac
  278.   AccurateRip: Accurate (confidence 14)     [Pass 1]
  279.   CRC32: 41E4556B     AccurateRip CRC: C96730A4 (CRCv2)     [DiscID: 028-003d4569-04e2be5c-7f11d31c-5]
  280.   AccurateRip Verified Confidence 14 [CRCv2 c96730a4]
  281.   AccurateRip Verified Confidence 6 [CRCv1 ab39b4d6]
  282.  
  283. Track 6:  Ripped LBA 49357 to 58617 (2:03) in 0:08. Filename: C:\dBpoweramp\06 - Move Me.flac
  284.   AccurateRip: Accurate (confidence 14)     [Pass 1]
  285.   CRC32: 72EF7920     AccurateRip CRC: EF601364 (CRCv2)     [DiscID: 028-003d4569-04e2be5c-7f11d31c-6]
  286.   AccurateRip Verified Confidence 14 [CRCv2 ef601364]
  287.   AccurateRip Verified Confidence 6 [CRCv1 af9df68d]
  288.  
  289. Track 7:  Ripped LBA 58617 to 67875 (2:03) in 0:08. Filename: C:\dBpoweramp\07 - Close my Eyes for Me.flac
  290.   AccurateRip: Accurate (confidence 14)     [Pass 1]
  291.   CRC32: FAD8D936     AccurateRip CRC: C784D661 (CRCv2)     [DiscID: 028-003d4569-04e2be5c-7f11d31c-7]
  292.   AccurateRip Verified Confidence 14 [CRCv2 c784d661]
  293.   AccurateRip Verified Confidence 6 [CRCv1 d84634bb]
  294.  
  295. Track 8:  Ripped LBA 67875 to 76692 (1:57) in 0:07. Filename: C:\dBpoweramp\08 - 大桟橋.flac
  296.   AccurateRip: Accurate (confidence 14)     [Pass 1]
  297.   CRC32: 83A01585     AccurateRip CRC: 83BA47D2 (CRCv2)     [DiscID: 028-003d4569-04e2be5c-7f11d31c-8]
  298.   AccurateRip Verified Confidence 14 [CRCv2 83ba47d2]
  299.   AccurateRip Verified Confidence 6 [CRCv1 9eac245b]
  300.  
  301. Track 9:  Ripped LBA 76692 to 85513 (1:57) in 0:07. Filename: C:\dBpoweramp\09 - SPEEDY CAT.flac
  302.   AccurateRip: Accurate (confidence 14)     [Pass 1]
  303.   CRC32: A3B178B2     AccurateRip CRC: 2FC80459 (CRCv2)     [DiscID: 028-003d4569-04e2be5c-7f11d31c-9]
  304.   AccurateRip Verified Confidence 14 [CRCv2 2fc80459]
  305.   AccurateRip Verified Confidence 6 [CRCv1 2828665b]
  306.  
  307. Track 10:  Ripped LBA 85513 to 94976 (2:06) in 0:08. Filename: C:\dBpoweramp\10 - CAR OF YOUR DREAMS.flac
  308.   AccurateRip: Accurate (confidence 14)     [Pass 1]
  309.   CRC32: 8E47C13C     AccurateRip CRC: 7481C1B7 (CRCv2)     [DiscID: 028-003d4569-04e2be5c-7f11d31c-10]
  310.   AccurateRip Verified Confidence 14 [CRCv2 7481c1b7]
  311.   AccurateRip Verified Confidence 6 [CRCv1 f2fe0c5a]
  312.  
  313. Track 11:  Ripped LBA 94976 to 103356 (1:51) in 0:06. Filename: C:\dBpoweramp\11 - 太陽 ~T・A・I・Y・O~.flac
  314.   AccurateRip: Accurate (confidence 14)     [Pass 1]
  315.   CRC32: 057A31F7     AccurateRip CRC: 9D31F68D (CRCv2)     [DiscID: 028-003d4569-04e2be5c-7f11d31c-11]
  316.   AccurateRip Verified Confidence 14 [CRCv2 9d31f68d]
  317.   AccurateRip Verified Confidence 6 [CRCv1 90b4cb37]
  318.  
  319. Track 12:  Ripped LBA 103356 to 112883 (2:07) in 0:07. Filename: C:\dBpoweramp\12 - KEY.flac
  320.   AccurateRip: Accurate (confidence 14)     [Pass 1]
  321.   CRC32: 523EDB0F     AccurateRip CRC: A465A673 (CRCv2)     [DiscID: 028-003d4569-04e2be5c-7f11d31c-12]
  322.   AccurateRip Verified Confidence 14 [CRCv2 a465a673]
  323.   AccurateRip Verified Confidence 6 [CRCv1 23232cda]
  324.  
  325. Track 13:  Ripped LBA 112883 to 120318 (1:39) in 0:05. Filename: C:\dBpoweramp\13 - GENOCIDE.flac
  326.   AccurateRip: Accurate (confidence 14)     [Pass 1]
  327.   CRC32: 9269D3E0     AccurateRip CRC: 713828EF (CRCv2)     [DiscID: 028-003d4569-04e2be5c-7f11d31c-13]
  328.   AccurateRip Verified Confidence 14 [CRCv2 713828ef]
  329.   AccurateRip Verified Confidence 6 [CRCv1 75d295bc]
  330.  
  331. Track 14:  Ripped LBA 120318 to 130095 (2:10) in 0:07. Filename: C:\dBpoweramp\14 - ピアノ協奏曲第1番〝蠍火〞(大きな鍵盤と円盤のための).flac
  332.   AccurateRip: Accurate (confidence 14)     [Pass 1]
  333.   CRC32: 34F66F50     AccurateRip CRC: 36A3B8E9 (CRCv2)     [DiscID: 028-003d4569-04e2be5c-7f11d31c-14]
  334.   AccurateRip Verified Confidence 14 [CRCv2 36a3b8e9]
  335.   AccurateRip Verified Confidence 6 [CRCv1 6497921b]
  336.  
  337. Track 15:  Ripped LBA 130095 to 135690 (1:14) in 0:04. Filename: C:\dBpoweramp\15 - Ending.flac
  338.   AccurateRip: Accurate (confidence 14)     [Pass 1]
  339.   CRC32: 408A95CD     AccurateRip CRC: 84200EB1 (CRCv2)     [DiscID: 028-003d4569-04e2be5c-7f11d31c-15]
  340.   AccurateRip Verified Confidence 14 [CRCv2 84200eb1]
  341.   AccurateRip Verified Confidence 6 [CRCv1 129a364f]
  342.  
  343. Track 16:  Ripped LBA 135690 to 144435 (1:56) in 0:06. Filename: C:\dBpoweramp\16 - エブリデイ・ラブリデイ -L.E.D. Style Mix-.flac
  344.   AccurateRip: Accurate (confidence 13)     [Pass 1]
  345.   CRC32: 8C183793     AccurateRip CRC: 4FB9149D (CRCv2)     [DiscID: 028-003d4569-04e2be5c-7f11d31c-16]
  346.   AccurateRip Verified Confidence 13 [CRCv2 4fb9149d]
  347.   AccurateRip Verified Confidence 6 [CRCv1 1e5d202]
  348.  
  349. Track 17:  Ripped LBA 144435 to 153221 (1:57) in 0:06. Filename: C:\dBpoweramp\17 - Tell Me More···.flac
  350.   AccurateRip: Accurate (confidence 13)     [Pass 1]
  351.   CRC32: F7C3C062     AccurateRip CRC: FEDAF54B (CRCv2)     [DiscID: 028-003d4569-04e2be5c-7f11d31c-17]
  352.   AccurateRip Verified Confidence 13 [CRCv2 fedaf54b]
  353.   AccurateRip Verified Confidence 6 [CRCv1 ecc4dd10]
  354.  
  355. Track 18:  Ripped LBA 153221 to 162437 (2:02) in 0:06. Filename: C:\dBpoweramp\18 - NEBULA GRASPER.flac
  356.   AccurateRip: Accurate (confidence 14)     [Pass 1]
  357.   CRC32: C13BF903     AccurateRip CRC: 7B5FE2AC (CRCv2)     [DiscID: 028-003d4569-04e2be5c-7f11d31c-18]
  358.   AccurateRip Verified Confidence 14 [CRCv2 7b5fe2ac]
  359.   AccurateRip Verified Confidence 6 [CRCv1 e1723aae]
  360.  
  361. Track 19:  Ripped LBA 162437 to 171993 (2:07) in 0:06. Filename: C:\dBpoweramp\19 - STEP INTO THE NEW WORLD.flac
  362.   AccurateRip: Accurate (confidence 14)     [Pass 1]
  363.   CRC32: 56E20F34     AccurateRip CRC: B18B24E0 (CRCv2)     [DiscID: 028-003d4569-04e2be5c-7f11d31c-19]
  364.   AccurateRip Verified Confidence 14 [CRCv2 b18b24e0]
  365.   AccurateRip Verified Confidence 6 [CRCv1 d30b5890]
  366.  
  367. Track 20:  Ripped LBA 171993 to 179234 (1:36) in 0:05. Filename: C:\dBpoweramp\20 - LOVE BOX.flac
  368.   AccurateRip: Accurate (confidence 14)     [Pass 1]
  369.   CRC32: 41AEE1D5     AccurateRip CRC: 7BC6D007 (CRCv2)     [DiscID: 028-003d4569-04e2be5c-7f11d31c-20]
  370.   AccurateRip Verified Confidence 14 [CRCv2 7bc6d007]
  371.   AccurateRip Verified Confidence 5 [CRCv1 20934f5f]
  372.  
  373. Track 21:  Ripped LBA 179234 to 186907 (1:42) in 0:05. Filename: C:\dBpoweramp\21 - More Move.flac
  374.   AccurateRip: Accurate (confidence 14)     [Pass 1]
  375.   CRC32: 811A1162     AccurateRip CRC: 55DC9F74 (CRCv2)     [DiscID: 028-003d4569-04e2be5c-7f11d31c-21]
  376.   AccurateRip Verified Confidence 14 [CRCv2 55dc9f74]
  377.   AccurateRip Verified Confidence 6 [CRCv1 1ec39a6d]
  378.  
  379. Track 22:  Ripped LBA 186907 to 195214 (1:50) in 0:05. Filename: C:\dBpoweramp\22 - suggestion.flac
  380.   AccurateRip: Accurate (confidence 13)     [Pass 1]
  381.   CRC32: BD68FF51     AccurateRip CRC: 7504415C (CRCv2)     [DiscID: 028-003d4569-04e2be5c-7f11d31c-22]
  382.   AccurateRip Verified Confidence 13 [CRCv2 7504415c]
  383.   AccurateRip Verified Confidence 6 [CRCv1 cd511c86]
  384.  
  385. Track 23:  Ripped LBA 195214 to 224969 (6:36) in 0:19. Filename: C:\dBpoweramp\23 - believe...?(long version).flac
  386.   AccurateRip: Accurate (confidence 13)     [Pass 1]
  387.   CRC32: 6CF540AB     AccurateRip CRC: 967B48A9 (CRCv2)     [DiscID: 028-003d4569-04e2be5c-7f11d31c-23]
  388.   AccurateRip Verified Confidence 13 [CRCv2 967b48a9]
  389.   AccurateRip Verified Confidence 6 [CRCv1 72140634]
  390.  
  391. Track 24:  Ripped LBA 224969 to 250785 (5:44) in 0:15. Filename: C:\dBpoweramp\24 - KING OF GROOVE(long version).flac
  392.   AccurateRip: Accurate (confidence 13)     [Pass 1]
  393.   CRC32: CC987A08     AccurateRip CRC: 42852400 (CRCv2)     [DiscID: 028-003d4569-04e2be5c-7f11d31c-24]
  394.   AccurateRip Verified Confidence 13 [CRCv2 42852400]
  395.   AccurateRip Verified Confidence 6 [CRCv1 107b4730]
  396.  
  397. Track 25:  Ripped LBA 250785 to 273358 (5:00) in 0:13. Filename: C:\dBpoweramp\25 - EVO66(long version).flac
  398.   AccurateRip: Accurate (confidence 13)     [Pass 1]
  399.   CRC32: 93B68F95     AccurateRip CRC: C9102434 (CRCv2)     [DiscID: 028-003d4569-04e2be5c-7f11d31c-25]
  400.   AccurateRip Verified Confidence 13 [CRCv2 c9102434]
  401.   AccurateRip Verified Confidence 6 [CRCv1 7c292d7a]
  402.  
  403. Track 26:  Ripped LBA 273358 to 290319 (3:46) in 0:09. Filename: C:\dBpoweramp\26 - D.A.N.C.E.!(long version).flac
  404.   AccurateRip: Accurate (confidence 13)     [Pass 1]
  405.   CRC32: CBEC1AAF     AccurateRip CRC: C1282553 (CRCv2)     [DiscID: 028-003d4569-04e2be5c-7f11d31c-26]
  406.   AccurateRip Verified Confidence 13 [CRCv2 c1282553]
  407.   AccurateRip Verified Confidence 6 [CRCv1 53994590]
  408.  
  409. Track 27:  Ripped LBA 290319 to 306205 (3:31) in 0:11. Filename: C:\dBpoweramp\27 - Sphere(long version).flac
  410.   AccurateRip: Accurate (confidence 13)     [Pass 1]
  411.   CRC32: C57AD853     AccurateRip CRC: DA95DCAB (CRCv2)     [DiscID: 028-003d4569-04e2be5c-7f11d31c-27]
  412.   AccurateRip Verified Confidence 13 [CRCv2 da95dcab]
  413.   AccurateRip Verified Confidence 6 [CRCv1 889744df]
  414.  
  415. Track 28:  Ripped LBA 306205 to 342286 (8:01) in 0:24. Filename: C:\dBpoweramp\28 - ピアノ協奏曲第1番〝蠍火〞(PF Concerto No.1〝Anti-Ares〞)(long version).flac
  416.   AccurateRip: Accurate (confidence 13)     [Pass 1]
  417.   CRC32: 8EADF162     AccurateRip CRC: 2D0C96EE (CRCv2)     [DiscID: 028-003d4569-04e2be5c-7f11d31c-28]
  418.   AccurateRip Verified Confidence 13 [CRCv2 2d0c96ee]
  419.   AccurateRip Verified Confidence 6 [CRCv1 2320a6fa]
  420.  
  421. --------------
  422.  
  423. 28 Tracks Ripped Accurately
RAW Paste Data
We use cookies for various purposes including analytics. By continuing to use Pastebin, you agree to our use of cookies as described in the Cookies Policy. OK, I Understand
Top