Secasa

Untitled

May 20th, 2015
28
Never
Not a member of Pastebin yet? Sign Up, it unlocks many cool features!
  1. Format : Matroska
  2. Format version : Version 2
  3. File size : 10.8 GiB
  4. Duration : 1h 41mn
  5. Overall bit rate : 15.3 Mbps
  6. Encoded date : UTC 2015-05-19 13:23:03
  7. Writing application : mkvmerge v5.7.0 ('The Whirlwind') built on Jul 8 2012 20:08:51
  8. Writing library : libebml v1.2.3 + libmatroska v1.3.0
  9.  
  10. Video
  11. ID : 1
  12. Format : AVC
  13. Format/Info : Advanced Video Codec
  14. Format profile : High@L4.1
  15. Format settings, CABAC : Yes
  16. Format settings, ReFrames : 4 frames
  17. Codec ID : V_MPEG4/ISO/AVC
  18. Duration : 1h 41mn
  19. Bit rate : 13.0 Mbps
  20. Width : 1 920 pixels
  21. Height : 1 036 pixels
  22. Display aspect ratio : 1.85:1
  23. Frame rate mode : Constant
  24. Frame rate : 23.976 fps
  25. Color space : YUV
  26. Chroma subsampling : 4:2:0
  27. Bit depth : 8 bits
  28. Scan type : Progressive
  29. Bits/(Pixel*Frame) : 0.274
  30. Stream size : 9.23 GiB (85%)
  31. Writing library : x264 core 146 r2538 121396c
  32. Encoding settings : cabac=1 / ref=4 / deblock=1:-3:-3 / analyse=0x3:0x113 / me=umh / subme=10 / psy=1 / psy_rd=0.95:0.00 / mixed_ref=1 / me_range=32 / chroma_me=1 / trellis=2 / 8x8dct=1 / cqm=0 / deadzone=21,11 / fast_pskip=0 / chroma_qp_offset=-2 / threads=18 / lookahead_threads=3 / sliced_threads=0 / nr=0 / decimate=0 / interlaced=0 / bluray_compat=0 / constrained_intra=0 / bframes=9 / b_pyramid=2 / b_adapt=2 / b_bias=0 / direct=3 / weightb=1 / open_gop=0 / weightp=2 / keyint=240 / keyint_min=23 / scenecut=40 / intra_refresh=0 / rc_lookahead=80 / rc=crf / mbtree=0 / crf=16.8 / qcomp=0.60 / qpmin=10 / qpmax=51 / qpstep=4 / vbv_maxrate=62500 / vbv_bufsize=78125 / crf_max=0.0 / nal_hrd=none / filler=0 / ip_ratio=1.40 / pb_ratio=1.30 / aq=2:0.70
  33. Language : English
  34. Default : Yes
  35. Forced : No
  36.  
  37. Audio #1
  38. ID : 2
  39. Format : AC-3
  40. Format/Info : Audio Coding 3
  41. Mode extension : CM (complete main)
  42. Format settings, Endianness : Big
  43. Codec ID : A_AC3
  44. Duration : 1h 41mn
  45. Bit rate mode : Constant
  46. Bit rate : 448 Kbps
  47. Channel(s) : 6 channels
  48. Channel positions : Front: L C R, Side: L R, LFE
  49. Sampling rate : 48.0 KHz
  50. Bit depth : 16 bits
  51. Compression mode : Lossy
  52. Stream size : 324 MiB (3%)
  53. Language : Spanish
  54. Default : No
  55. Forced : Yes
  56.  
  57. Audio #2
  58. ID : 3
  59. Format : DTS
  60. Format/Info : Digital Theater Systems
  61. Mode : 16
  62. Format settings, Endianness : Big
  63. Codec ID : A_DTS
  64. Duration : 1h 41mn
  65. Bit rate mode : Constant
  66. Bit rate : 1 509 Kbps
  67. Channel(s) : 6 channels
  68. Channel positions : Front: L C R, Side: L R, LFE
  69. Sampling rate : 48.0 KHz
  70. Bit depth : 24 bits
  71. Compression mode : Lossy
  72. Stream size : 1.07 GiB (10%)
  73. Title : English DTS 5.1 @ 1509 Kbps
  74. Language : English
  75. Default : Yes
  76. Forced : No
  77.  
  78. Text #1
  79. ID : 4
  80. Format : UTF-8
  81. Codec ID : S_TEXT/UTF8
  82. Codec ID/Info : UTF-8 Plain Text
  83. Title : Spanish
  84. Language : Spanish
  85. Default : No
  86. Forced : No
  87.  
  88. Text #2
  89. ID : 5
  90. Format : UTF-8
  91. Codec ID : S_TEXT/UTF8
  92. Codec ID/Info : UTF-8 Plain Text
  93. Title : English (SDH)
  94. Language : English
  95. Default : No
  96. Forced : No
  97.  
  98. Menu
  99. 00:00:00.000 : en:Chapter 1
  100. 00:04:40.697 : en:Chapter 2
  101. 00:11:03.246 : en:Chapter 3
  102. 00:15:37.895 : en:Chapter 4
  103. 00:21:34.668 : en:Chapter 5
  104. 00:28:51.063 : en:Chapter 6
  105. 00:36:54.546 : en:Chapter 7
  106. 00:43:54.841 : en:Chapter 8
  107. 00:49:39.518 : en:Chapter 9
  108. 00:58:20.247 : en:Chapter 10
  109. 01:05:08.863 : en:Chapter 11
  110. 01:11:36.000 : en:Chapter 12
  111. 01:16:38.886 : en:Chapter 13
  112. 01:20:02.172 : en:Chapter 14
  113. 01:27:08.849 : en:Chapter 15
  114. 01:30:08.945 : en:Chapter 16
RAW Paste Data