Guest User

The.Last.Stand.2013.1080p.BluRay.REMUX.AVC.DTS-HD.MA.7.1-EPSiLON

a guest
May 24th, 2019
67
Never
Not a member of Pastebin yet? Sign Up, it unlocks many cool features!
  1. General
  2. Unique ID                                : 77229614596293224741649907634245852610 (0x3A19E1FAE28413A6D930D410017DDDC2)
  3. Complete name                            : The.Last.Stand.2013.1080p.BluRay.REMUX.AVC.DTS-HD.MA.7.1-EPSiLON.mkv
  4. Format                                   : Matroska
  5. Format version                           : Version 4
  6. File size                                : 29.2 GiB
  7. Duration                                 : 1 h 47 min
  8. Overall bit rate mode                    : Variable
  9. Overall bit rate                         : 39.0 Mb/s
  10. Movie name                               : The Last Stand (2013)
  11. Encoded date                             : UTC 2018-07-13 06:50:41
  12. Writing application                      : mkvmerge v24.0.0 ('Beyond The Pale') 64-bit
  13. Writing library                          : libebml v1.3.6 + libmatroska v1.4.9
  14.  
  15. Video
  16. ID                                       : 1
  17. Format                                   : AVC
  18. Format/Info                              : Advanced Video Codec
  19. Format profile                           : High@L4.1
  20. Format settings                          : CABAC / 4 Ref Frames
  21. Format settings, CABAC                   : Yes
  22. Format settings, Reference frames        : 4 frames
  23. Codec ID                                 : V_MPEG4/ISO/AVC
  24. Duration                                 : 1 h 47 min
  25. Bit rate mode                            : Variable
  26. Bit rate                                 : 33.8 Mb/s
  27. Maximum bit rate                         : 37.0 Mb/s
  28. Width                                    : 1 920 pixels
  29. Height                                   : 1 080 pixels
  30. Display aspect ratio                     : 16:9
  31. Frame rate mode                          : Constant
  32. Frame rate                               : 23.976 (24000/1001) FPS
  33. Color space                              : YUV
  34. Chroma subsampling                       : 4:2:0
  35. Bit depth                                : 8 bits
  36. Scan type                                : Progressive
  37. Bits/(Pixel*Frame)                       : 0.679
  38. Stream size                              : 25.3 GiB (87%)
  39. Title                                    : MPEG-4 AVC Video / 33996 kbps / 1080p / 23.976 fps / 16:9 / High Profile 4.1
  40. Language                                 : English
  41. Default                                  : Yes
  42. Forced                                   : No
  43.  
  44. Audio
  45. ID                                       : 2
  46. Format                                   : DTS XLL
  47. Format/Info                              : Digital Theater Systems
  48. Commercial name                          : DTS-HD Master Audio
  49. Codec ID                                 : A_DTS
  50. Duration                                 : 1 h 47 min
  51. Bit rate mode                            : Variable
  52. Bit rate                                 : 5 111 kb/s
  53. Channel(s)                               : 8 channels
  54. Channel layout                           : C L R LFE Lb Rb Lss Rss
  55. Sampling rate                            : 48.0 kHz
  56. Frame rate                               : 93.750 FPS (512 SPF)
  57. Bit depth                                : 24 bits
  58. Compression mode                         : Lossless
  59. Stream size                              : 3.83 GiB (13%)
  60. Title                                    : DTS-HD Master Audio / 7.1 / 48 kHz / 5111 kbps / 24-bit
  61. Language                                 : English
  62. Default                                  : Yes
  63. Forced                                   : No
  64.  
  65. Text #1
  66. ID                                       : 3
  67. Format                                   : PGS
  68. Codec ID                                 : S_HDMV/PGS
  69. Codec ID/Info                            : Picture based subtitle format used on BDs/HD-DVDs
  70. Duration                                 : 1 h 37 min
  71. Bit rate                                 : 29.3 kb/s
  72. Count of elements                        : 2400
  73. Stream size                              : 20.4 MiB (0%)
  74. Language                                 : English
  75. Default                                  : No
  76. Forced                                   : No
  77.  
  78. Text #2
  79. ID                                       : 4
  80. Format                                   : PGS
  81. Codec ID                                 : S_HDMV/PGS
  82. Codec ID/Info                            : Picture based subtitle format used on BDs/HD-DVDs
  83. Duration                                 : 1 h 38 min
  84. Bit rate                                 : 33.8 kb/s
  85. Count of elements                        : 2762
  86. Stream size                              : 23.7 MiB (0%)
  87. Title                                    : SDH
  88. Language                                 : English
  89. Default                                  : No
  90. Forced                                   : No
  91.  
  92. Text #3
  93. ID                                       : 5
  94. Format                                   : PGS
  95. Codec ID                                 : S_HDMV/PGS
  96. Codec ID/Info                            : Picture based subtitle format used on BDs/HD-DVDs
  97. Duration                                 : 1 h 37 min
  98. Bit rate                                 : 27.7 kb/s
  99. Count of elements                        : 2228
  100. Stream size                              : 19.4 MiB (0%)
  101. Language                                 : Spanish
  102. Default                                  : No
  103. Forced                                   : No
  104.  
  105. Menu
  106. 00:00:00.000                             : en:Chapter 1
  107. 00:03:57.028                             : en:Chapter 2
  108. 00:13:09.956                             : en:Chapter 3
  109. 00:18:55.760                             : en:Chapter 4
  110. 00:25:51.508                             : en:Chapter 5
  111. 00:30:48.889                             : en:Chapter 6
  112. 00:36:10.835                             : en:Chapter 7
  113. 00:47:04.029                             : en:Chapter 8
  114. 00:50:23.312                             : en:Chapter 9
  115. 00:59:50.337                             : en:Chapter 10
  116. 01:07:37.470                             : en:Chapter 11
  117. 01:14:32.426                             : en:Chapter 12
  118. 01:21:47.027                             : en:Chapter 13
  119. 01:25:38.008                             : en:Chapter 14
  120. 01:28:49.908                             : en:Chapter 15
  121. 01:34:31.332                             : en:Chapter 16
RAW Paste Data