Guest User

Zodiac.2007.MULTi.1080p.BluRay.x264-FiDELiO

a guest
May 18th, 2019
87
Never
Not a member of Pastebin yet? Sign Up, it unlocks many cool features!
  1. General
  2. Unique ID                                : 202030727346396854726879308646073317500 (0x97FDB3E74F9E450A1059E60DC479387C)
  3. Complete name                            : Zodiac.2007.MULTi.1080p.BluRay.x264-FiDELiO.mkv
  4. Format                                   : Matroska
  5. Format version                           : Version 4
  6. File size                                : 12.0 GiB
  7. Duration                                 : 2 h 42 min
  8. Overall bit rate                         : 10.6 Mb/s
  9. Encoded date                             : UTC 2013-09-07 09:45:30
  10. Writing application                      : mkvmerge v6.3.0 ('You can't stop me!') built on Aug 25 2013 18:20:49
  11. Writing library                          : libebml v1.3.0 + libmatroska v1.4.0 / Lavf54.63.104
  12.  
  13. Video
  14. ID                                       : 1
  15. Format                                   : AVC
  16. Format/Info                              : Advanced Video Codec
  17. Format profile                           : High@L4.1
  18. Format settings                          : CABAC / 5 Ref Frames
  19. Format settings, CABAC                   : Yes
  20. Format settings, Reference frames        : 5 frames
  21. Codec ID                                 : V_MPEG4/ISO/AVC
  22. Duration                                 : 2 h 42 min
  23. Bit rate                                 : 9 309 kb/s
  24. Width                                    : 1 920 pixels
  25. Height                                   : 800 pixels
  26. Display aspect ratio                     : 2.40:1
  27. Frame rate mode                          : Constant
  28. Frame rate                               : 23.976 (24000/1001) FPS
  29. Color space                              : YUV
  30. Chroma subsampling                       : 4:2:0
  31. Bit depth                                : 8 bits
  32. Scan type                                : Progressive
  33. Bits/(Pixel*Frame)                       : 0.253
  34. Stream size                              : 10.3 GiB (86%)
  35. Writing library                          : x264 core 135 r2345M f0c1c53
  36. Encoding settings                        : cabac=1 / ref=5 / deblock=1:0:0 / analyse=0x3:0x133 / me=umh / subme=10 / psy=1 / psy_rd=1.00:0.00 / mixed_ref=1 / me_range=24 / chroma_me=1 / trellis=2 / 8x8dct=1 / cqm=0 / deadzone=21,11 / fast_pskip=1 / chroma_qp_offset=-2 / threads=12 / lookahead_threads=2 / sliced_threads=0 / nr=0 / decimate=1 / interlaced=0 / bluray_compat=0 / constrained_intra=0 / bframes=8 / b_pyramid=2 / b_adapt=2 / b_bias=0 / direct=3 / weightb=1 / open_gop=0 / weightp=2 / keyint=250 / keyint_min=23 / scenecut=40 / intra_refresh=0 / rc_lookahead=60 / rc=2pass / mbtree=1 / bitrate=9309 / ratetol=1.0 / qcomp=0.60 / qpmin=0 / qpmax=69 / qpstep=4 / cplxblur=20.0 / qblur=0.5 / ip_ratio=1.40 / aq=1:1.00
  37. Default                                  : Yes
  38. Forced                                   : No
  39.  
  40. Audio #1
  41. ID                                       : 2
  42. Format                                   : AC-3
  43. Format/Info                              : Audio Coding 3
  44. Commercial name                          : Dolby Digital
  45. Codec ID                                 : A_AC3
  46. Duration                                 : 2 h 42 min
  47. Bit rate mode                            : Constant
  48. Bit rate                                 : 640 kb/s
  49. Channel(s)                               : 6 channels
  50. Channel layout                           : L R C LFE Ls Rs
  51. Sampling rate                            : 48.0 kHz
  52. Frame rate                               : 31.250 FPS (1536 SPF)
  53. Bit depth                                : 16 bits
  54. Compression mode                         : Lossy
  55. Stream size                              : 744 MiB (6%)
  56. Title                                    : French audio
  57. Language                                 : French
  58. Service kind                             : Complete Main
  59. Default                                  : Yes
  60. Forced                                   : No
  61.  
  62. Audio #2
  63. ID                                       : 3
  64. Format                                   : AC-3
  65. Format/Info                              : Audio Coding 3
  66. Commercial name                          : Dolby Digital
  67. Codec ID                                 : A_AC3
  68. Duration                                 : 2 h 42 min
  69. Bit rate mode                            : Constant
  70. Bit rate                                 : 640 kb/s
  71. Channel(s)                               : 6 channels
  72. Channel layout                           : L R C LFE Ls Rs
  73. Sampling rate                            : 48.0 kHz
  74. Frame rate                               : 31.250 FPS (1536 SPF)
  75. Bit depth                                : 16 bits
  76. Compression mode                         : Lossy
  77. Stream size                              : 744 MiB (6%)
  78. Title                                    : English audio
  79. Language                                 : English
  80. Service kind                             : Complete Main
  81. Default                                  : No
  82. Forced                                   : No
  83.  
  84. Text #1
  85. ID                                       : 4
  86. Format                                   : UTF-8
  87. Codec ID                                 : S_TEXT/UTF8
  88. Codec ID/Info                            : UTF-8 Plain Text
  89. Title                                    : Forced French subtitles
  90. Language                                 : French
  91. Default                                  : Yes
  92. Forced                                   : No
  93.  
  94. Text #2
  95. ID                                       : 5
  96. Format                                   : UTF-8
  97. Codec ID                                 : S_TEXT/UTF8
  98. Codec ID/Info                            : UTF-8 Plain Text
  99. Title                                    : French subtitles
  100. Language                                 : French
  101. Default                                  : No
  102. Forced                                   : No
  103.  
  104. Text #3
  105. ID                                       : 6
  106. Format                                   : UTF-8
  107. Codec ID                                 : S_TEXT/UTF8
  108. Codec ID/Info                            : UTF-8 Plain Text
  109. Title                                    : English subtitles
  110. Language                                 : English
  111. Default                                  : No
  112. Forced                                   : No
  113.  
  114. Text #4
  115. ID                                       : 7
  116. Format                                   : UTF-8
  117. Codec ID                                 : S_TEXT/UTF8
  118. Codec ID/Info                            : UTF-8 Plain Text
  119. Title                                    : English SDH
  120. Language                                 : English
  121. Default                                  : No
  122. Forced                                   : No
  123.  
  124. Menu
  125. 00:00:00.000                             : en:00:00:00.000
  126. 00:06:19.212                             : en:00:06:19.212
  127. 00:14:27.366                             : en:00:14:27.366
  128. 00:17:39.058                             : en:00:17:39.058
  129. 00:24:19.458                             : en:00:24:19.458
  130. 00:31:34.226                             : en:00:31:34.226
  131. 00:36:32.524                             : en:00:36:32.524
  132. 00:42:18.369                             : en:00:42:18.369
  133. 00:49:14.618                             : en:00:49:14.618
  134. 00:55:51.014                             : en:00:55:51.014
  135. 01:01:02.158                             : en:01:01:02.158
  136. 01:06:51.507                             : en:01:06:51.507
  137. 01:12:12.161                             : en:01:12:12.161
  138. 01:17:48.664                             : en:01:17:48.664
  139. 01:21:38.727                             : en:01:21:38.727
  140. 01:34:37.171                             : en:01:34:37.171
  141. 01:36:57.979                             : en:01:36:57.979
  142. 01:41:54.275                             : en:01:41:54.275
  143. 01:47:57.638                             : en:01:47:57.638
  144. 01:56:02.455                             : en:01:56:02.455
  145. 02:01:21.107                             : en:02:01:21.107
  146. 02:07:19.966                             : en:02:07:19.966
  147. 02:14:15.381                             : en:02:14:15.381
  148. 02:21:36.154                             : en:02:21:36.154
  149. 02:28:03.374                             : en:02:28:03.374
  150. 02:34:35.433                             : en:02:34:35.433
  151. 02:39:27.391                             : en:02:39:27.391
  152. 02:42:36.705                             : en:02:42:36.705
RAW Paste Data