Guest User

Ffprobe outputffprobe version 4.3.1 Copyright (c) 2007-2020 the FFmpeg developers built with gcc 9

a guest
Feb 5th, 2021
101
269 days
Not a member of Pastebin yet? Sign Up, it unlocks many cool features!
  1. ffprobe version 4.3.1 Copyright (c) 2007-2020 the FFmpeg developers
  2. built with gcc 9.3.0 (Gentoo 9.3.0-r2 p4)
  3. configuration: --prefix=/usr --libdir=/usr/lib64 --shlibdir=/usr/lib64 --docdir=/usr/share/doc/ffmpeg-4.3.1/html --mandir=/usr/share/man --enable-shared --cc=x86_64-pc-linux-gnu-gcc --cxx=x86_64-pc-linux-gnu-g++ --ar=x86_64-pc-linux-gnu-ar --nm=x86_64-pc-linux-gnu-nm --ranlib=x86_64-pc-linux-gnu-ranlib --pkg-config=x86_64-pc-linux-gnu-pkg-config --optflags='-march=native -O3 -pipe -flto=5 -fgraphite-identity -floop-nest-optimize -ftree-vectorize -fsched-pressure -fipa-pta -fno-semantic-interposition -fuse-linker-plugin -fno-common -fdevirtualize-at-ltrans -falign-functions=32 --param=l1-cache-size=32 --param=l1-cache-line-size=64 --param=l2-cache-size=6144' --disable-static --enable-avfilter --enable-avresample --disable-stripping --disable-optimizations --disable-libcelt --enable-nonfree --disable-indev=v4l2 --disable-outdev=v4l2 --disable-indev=oss --disable-indev=jack --disable-outdev=oss --enable-bzlib --disable-runtime-cpudetect --disable-debug --disable-gcrypt --enable-gnutls --disable-gmp --enable-gpl
  4. --disable-hardcoded-tables --enable-iconv --disable-libtls --disable-libxml2 --disable-lzma --disable-network --disable-opencl --enable-openssl --enable-postproc --disable-libsmbclient --disable-ffplay --disable-sdl2 --disable-vaapi --disable-vdpau --disable-vulkan --enable-xlib --enable-libxcb --enable-libxcb-shm --enable-libxcb-xfixes --enable-zlib --disable-libcdio --disable-libiec61883 --disable-libdc1394 --enable-libcaca --disable-openal --disable-opengl --disable-libv4l2 --disable-libpulse --enable-libdrm --disable-libjack --disable-libopencore-amrwb --disable-libopencore-amrnb --disable-libcodec2 --enable-libdav1d --disable-libfdk-aac --disable-libopenjpeg --enable-libbluray --disable-libgme --disable-libgsm --disable-libaribb24 --disable-mmal --disable-libmodplug --enable-libopus --disable-libilbc --disable-librtmp --disable-libssh --disable-libspeex --disable-libsrt --enable-librsvg --disable-ffnvcodec --enable-libvorbis --disable-libvpx --disable-libzvbi --disable-appkit --disable-libbs2b --disable-chromaprint --disable-cuda-llvm --disable-libflite --disable-frei0r --disable-libfribidi --enable-fontconfig --disable-ladspa --disable-libass --disable-libtesseract --disable-lv2 --enable-libfreetype --disable-libvidstab --disable-librubberband --disable-libzmq --disable-libzimg --disable-libsoxr --enable-pthreads --disable-libvo-amrwbenc --enable-libmp3lame --disable-libkvazaar --disable-libaom --disable-libopenh264 --disable-librav1e --disable-libsnappy --disable-libtheora --disable-libtwolame --disable-libwavpack --disable-libwebp --disable-libx264 --disable-libx265 --disable-libxvid --disable-gnutls --disable-armv5te --disable-armv6 --disable-armv6t2 --disable-neon --disable-vfp --disable-vfpv3 --disable-armv8 --disable-mipsdsp --disable-mipsdspr2 --disable-mipsfpu --disable-altivec --disable-vsx --disable-power8 --disable-amd3dnow --disable-amd3dnowext --disable-fma4 --disable-xop --cpu=host --enable-lto --disable-doc --disable-htmlpages --enable-manpages
  5. libavutil 56. 51.100 / 56. 51.100
  6. libavcodec 58. 91.100 / 58. 91.100
  7. libavformat 58. 45.100 / 58. 45.100
  8. libavdevice 58. 10.100 / 58. 10.100
  9. libavfilter 7. 85.100 / 7. 85.100
  10. libavresample 4. 0. 0 / 4. 0. 0
  11. libswscale 5. 7.100 / 5. 7.100
  12. libswresample 3. 7.100 / 3. 7.100
  13. libpostproc 55. 7.100 / 55. 7.100
  14. Input #0, flac, from '29 My Girl.flac':
  15. Metadata:
  16. ALBUM : Prodigal Son: Season 1 (Original Television Soundtrack)
  17. ARTIST : Nathaniel Blume
  18. DATE : 2020
  19. TITLE : My Girl
  20. track : 29
  21. Duration: 00:02:55.60, start: 0.000000, bitrate: 1424 kb/s
  22. Stream #0:0: Audio: flac, 44100 Hz, stereo, s32 (24 bit)
  23. Stream #0:1: Video: mjpeg (Baseline), yuvj444p(pc, bt470bg/unknown/unknown), 640x640 [SAR 118:118 DAR 1:1], 90k tbr, 90k tbn, 90k tbc (attached pic)
  24. Metadata:
  25. comment : Other <------------------ Want to remove this tag
RAW Paste Data

Adblocker detected! Please consider disabling it...

We've detected AdBlock Plus or some other adblocking software preventing Pastebin.com from fully loading.

We don't have any obnoxious sound, or popup ads, we actively block these annoying types of ads!

Please add Pastebin.com to your ad blocker whitelist or disable your adblocking software.

×