Guest User

Tomb Raider CUE file

a guest
Dec 22nd, 2016
718
Never
Not a member of Pastebin yet? Sign Up, it unlocks many cool features!
  1. pi@raspberrypi:~/RetroPie/roms/psx $ cat Tomb\ Raider\ \(USA\)\ \(v1.6\).cue
  2. FILE "Tomb Raider (USA) (v1.6) (Track 01).bin" BINARY
  3. TRACK 01 MODE2/2352
  4. INDEX 01 00:00:00
  5. FILE "Tomb Raider (USA) (v1.6) (Track 02).bin" BINARY
  6. TRACK 02 AUDIO
  7. INDEX 00 00:00:00
  8. INDEX 01 00:02:00
  9. FILE "Tomb Raider (USA) (v1.6) (Track 03).bin" BINARY
  10. TRACK 03 AUDIO
  11. INDEX 00 00:00:00
  12. INDEX 01 00:02:00
  13. FILE "Tomb Raider (USA) (v1.6) (Track 04).bin" BINARY
  14. TRACK 04 AUDIO
  15. INDEX 00 00:00:00
  16. INDEX 01 00:02:00
  17. FILE "Tomb Raider (USA) (v1.6) (Track 05).bin" BINARY
  18. TRACK 05 AUDIO
  19. INDEX 00 00:00:00
  20. INDEX 01 00:02:00
  21. FILE "Tomb Raider (USA) (v1.6) (Track 06).bin" BINARY
  22. TRACK 06 AUDIO
  23. INDEX 00 00:00:00
  24. INDEX 01 00:02:00
  25. FILE "Tomb Raider (USA) (v1.6) (Track 07).bin" BINARY
  26. TRACK 07 AUDIO
  27. INDEX 00 00:00:00
  28. INDEX 01 00:02:00
  29. FILE "Tomb Raider (USA) (v1.6) (Track 08).bin" BINARY
  30. TRACK 08 AUDIO
  31. INDEX 00 00:00:00
  32. INDEX 01 00:02:00
  33. FILE "Tomb Raider (USA) (v1.6) (Track 09).bin" BINARY
  34. TRACK 09 AUDIO
  35. INDEX 00 00:00:00
  36. INDEX 01 00:02:00
  37. FILE "Tomb Raider (USA) (v1.6) (Track 10).bin" BINARY
  38. TRACK 10 AUDIO
  39. INDEX 00 00:00:00
  40. INDEX 01 00:02:00
  41. FILE "Tomb Raider (USA) (v1.6) (Track 11).bin" BINARY
  42. TRACK 11 AUDIO
  43. INDEX 00 00:00:00
  44. INDEX 01 00:02:00
  45. FILE "Tomb Raider (USA) (v1.6) (Track 12).bin" BINARY
  46. TRACK 12 AUDIO
  47. INDEX 00 00:00:00
  48. INDEX 01 00:02:00
  49. FILE "Tomb Raider (USA) (v1.6) (Track 13).bin" BINARY
  50. TRACK 13 AUDIO
  51. INDEX 00 00:00:00
  52. INDEX 01 00:02:00
  53. FILE "Tomb Raider (USA) (v1.6) (Track 14).bin" BINARY
  54. TRACK 14 AUDIO
  55. INDEX 00 00:00:00
  56. INDEX 01 00:02:00
  57. FILE "Tomb Raider (USA) (v1.6) (Track 15).bin" BINARY
  58. TRACK 15 AUDIO
  59. INDEX 00 00:00:00
  60. INDEX 01 00:02:00
  61. FILE "Tomb Raider (USA) (v1.6) (Track 16).bin" BINARY
  62. TRACK 16 AUDIO
  63. INDEX 00 00:00:00
  64. INDEX 01 00:02:00
  65. FILE "Tomb Raider (USA) (v1.6) (Track 17).bin" BINARY
  66. TRACK 17 AUDIO
  67. INDEX 00 00:00:00
  68. INDEX 01 00:02:00
  69. FILE "Tomb Raider (USA) (v1.6) (Track 18).bin" BINARY
  70. TRACK 18 AUDIO
  71. INDEX 00 00:00:00
  72. INDEX 01 00:02:00
  73. FILE "Tomb Raider (USA) (v1.6) (Track 19).bin" BINARY
  74. TRACK 19 AUDIO
  75. INDEX 00 00:00:00
  76. INDEX 01 00:02:00
  77. FILE "Tomb Raider (USA) (v1.6) (Track 20).bin" BINARY
  78. TRACK 20 AUDIO
  79. INDEX 00 00:00:00
  80. INDEX 01 00:02:00
  81. FILE "Tomb Raider (USA) (v1.6) (Track 21).bin" BINARY
  82. TRACK 21 AUDIO
  83. INDEX 00 00:00:00
  84. INDEX 01 00:02:00
  85. FILE "Tomb Raider (USA) (v1.6) (Track 22).bin" BINARY
  86. TRACK 22 AUDIO
  87. INDEX 00 00:00:00
  88. INDEX 01 00:02:00
  89. FILE "Tomb Raider (USA) (v1.6) (Track 23).bin" BINARY
  90. TRACK 23 AUDIO
  91. INDEX 00 00:00:00
  92. INDEX 01 00:02:00
  93. FILE "Tomb Raider (USA) (v1.6) (Track 24).bin" BINARY
  94. TRACK 24 AUDIO
  95. INDEX 00 00:00:00
  96. INDEX 01 00:02:00
  97. FILE "Tomb Raider (USA) (v1.6) (Track 25).bin" BINARY
  98. TRACK 25 AUDIO
  99. INDEX 00 00:00:00
  100. INDEX 01 00:02:00
  101. FILE "Tomb Raider (USA) (v1.6) (Track 26).bin" BINARY
  102. TRACK 26 AUDIO
  103. INDEX 00 00:00:00
  104. INDEX 01 00:02:00
  105. FILE "Tomb Raider (USA) (v1.6) (Track 27).bin" BINARY
  106. TRACK 27 AUDIO
  107. INDEX 00 00:00:00
  108. INDEX 01 00:02:00
  109. FILE "Tomb Raider (USA) (v1.6) (Track 28).bin" BINARY
  110. TRACK 28 AUDIO
  111. INDEX 00 00:00:00
  112. INDEX 01 00:02:00
  113. FILE "Tomb Raider (USA) (v1.6) (Track 29).bin" BINARY
  114. TRACK 29 AUDIO
  115. INDEX 00 00:00:00
  116. INDEX 01 00:02:00
  117. FILE "Tomb Raider (USA) (v1.6) (Track 30).bin" BINARY
  118. TRACK 30 AUDIO
  119. INDEX 00 00:00:00
  120. INDEX 01 00:02:00
  121. FILE "Tomb Raider (USA) (v1.6) (Track 31).bin" BINARY
  122. TRACK 31 AUDIO
  123. INDEX 00 00:00:00
  124. INDEX 01 00:02:00
  125. FILE "Tomb Raider (USA) (v1.6) (Track 32).bin" BINARY
  126. TRACK 32 AUDIO
  127. INDEX 00 00:00:00
  128. INDEX 01 00:02:00
  129. FILE "Tomb Raider (USA) (v1.6) (Track 33).bin" BINARY
  130. TRACK 33 AUDIO
  131. INDEX 00 00:00:00
  132. INDEX 01 00:02:00
  133. FILE "Tomb Raider (USA) (v1.6) (Track 34).bin" BINARY
  134. TRACK 34 AUDIO
  135. INDEX 00 00:00:00
  136. INDEX 01 00:02:00
  137. FILE "Tomb Raider (USA) (v1.6) (Track 35).bin" BINARY
  138. TRACK 35 AUDIO
  139. INDEX 00 00:00:00
  140. INDEX 01 00:02:00
  141. FILE "Tomb Raider (USA) (v1.6) (Track 36).bin" BINARY
  142. TRACK 36 AUDIO
  143. INDEX 00 00:00:00
  144. INDEX 01 00:02:00
  145. FILE "Tomb Raider (USA) (v1.6) (Track 37).bin" BINARY
  146. TRACK 37 AUDIO
  147. INDEX 00 00:00:00
  148. INDEX 01 00:02:00
  149. FILE "Tomb Raider (USA) (v1.6) (Track 38).bin" BINARY
  150. TRACK 38 AUDIO
  151. INDEX 00 00:00:00
  152. INDEX 01 00:02:00
  153. FILE "Tomb Raider (USA) (v1.6) (Track 39).bin" BINARY
  154. TRACK 39 AUDIO
  155. INDEX 00 00:00:00
  156. INDEX 01 00:02:00
  157. FILE "Tomb Raider (USA) (v1.6) (Track 40).bin" BINARY
  158. TRACK 40 AUDIO
  159. INDEX 00 00:00:00
  160. INDEX 01 00:02:00
  161. FILE "Tomb Raider (USA) (v1.6) (Track 41).bin" BINARY
  162. TRACK 41 AUDIO
  163. INDEX 00 00:00:00
  164. INDEX 01 00:02:00
  165. FILE "Tomb Raider (USA) (v1.6) (Track 42).bin" BINARY
  166. TRACK 42 AUDIO
  167. INDEX 00 00:00:00
  168. INDEX 01 00:02:00
  169. FILE "Tomb Raider (USA) (v1.6) (Track 43).bin" BINARY
  170. TRACK 43 AUDIO
  171. INDEX 00 00:00:00
  172. INDEX 01 00:02:00
  173. FILE "Tomb Raider (USA) (v1.6) (Track 44).bin" BINARY
  174. TRACK 44 AUDIO
  175. INDEX 00 00:00:00
  176. INDEX 01 00:02:00
  177. FILE "Tomb Raider (USA) (v1.6) (Track 45).bin" BINARY
  178. TRACK 45 AUDIO
  179. INDEX 00 00:00:00
  180. INDEX 01 00:02:00
  181. FILE "Tomb Raider (USA) (v1.6) (Track 46).bin" BINARY
  182. TRACK 46 AUDIO
  183. INDEX 00 00:00:00
  184. INDEX 01 00:02:00
  185. FILE "Tomb Raider (USA) (v1.6) (Track 47).bin" BINARY
  186. TRACK 47 AUDIO
  187. INDEX 00 00:00:00
  188. INDEX 01 00:02:00
  189. FILE "Tomb Raider (USA) (v1.6) (Track 48).bin" BINARY
  190. TRACK 48 AUDIO
  191. INDEX 00 00:00:00
  192. INDEX 01 00:02:00
  193. FILE "Tomb Raider (USA) (v1.6) (Track 49).bin" BINARY
  194. TRACK 49 AUDIO
  195. INDEX 00 00:00:00
  196. INDEX 01 00:02:00
  197. FILE "Tomb Raider (USA) (v1.6) (Track 50).bin" BINARY
  198. TRACK 50 AUDIO
  199. INDEX 00 00:00:00
  200. INDEX 01 00:02:00
  201. FILE "Tomb Raider (USA) (v1.6) (Track 51).bin" BINARY
  202. TRACK 51 AUDIO
  203. INDEX 00 00:00:00
  204. INDEX 01 00:02:00
  205. FILE "Tomb Raider (USA) (v1.6) (Track 52).bin" BINARY
  206. TRACK 52 AUDIO
  207. INDEX 00 00:00:00
  208. INDEX 01 00:02:00
  209. FILE "Tomb Raider (USA) (v1.6) (Track 53).bin" BINARY
  210. TRACK 53 AUDIO
  211. INDEX 00 00:00:00
  212. INDEX 01 00:02:00
  213. FILE "Tomb Raider (USA) (v1.6) (Track 54).bin" BINARY
  214. TRACK 54 AUDIO
  215. INDEX 00 00:00:00
  216. INDEX 01 00:02:00
  217. FILE "Tomb Raider (USA) (v1.6) (Track 55).bin" BINARY
  218. TRACK 55 AUDIO
  219. INDEX 00 00:00:00
  220. INDEX 01 00:02:00
  221. FILE "Tomb Raider (USA) (v1.6) (Track 56).bin" BINARY
  222. TRACK 56 AUDIO
  223. INDEX 00 00:00:00
  224. INDEX 01 00:02:00
  225. FILE "Tomb Raider (USA) (v1.6) (Track 57).bin" BINARY
  226. TRACK 57 AUDIO
  227. INDEX 00 00:00:00
  228. INDEX 01 00:02:00
RAW Paste Data