SHARE
TWEET

Untitled

a guest Sep 3rd, 2017 35 Never
Not a member of Pastebin yet? Sign Up, it unlocks many cool features!
  1. General
  2. ID                                       : 1 (0x1)
  3. Complete name                            : 3.Jours.dans.les.pas.d.un.Berger.2017.FRENCH.1080i.HDTV.DD2.0.H264-GFS.ts
  4. Format                                   : MPEG-TS
  5. File size                                : 3.63 GiB
  6. Duration                                 : 1h 19mn
  7. Overall bit rate mode                    : Variable
  8. Overall bit rate                         : 6 559 Kbps
  9.  
  10. Video
  11. ID                                       : 120 (0x78)
  12. Menu ID                                  : 513 (0x201)
  13. Format                                   : AVC
  14. Format/Info                              : Advanced Video Codec
  15. Format profile                           : High@L4.0
  16. Format settings, CABAC                   : Yes
  17. Format settings, ReFrames                : 4 frames
  18. Codec ID                                 : 27
  19. Duration                                 : 1h 19mn
  20. Bit rate                                 : 5 847 Kbps
  21. Width                                    : 1 920 pixels
  22. Height                                   : 1 080 pixels
  23. Display aspect ratio                     : 16:9
  24. Frame rate                               : 25.000 fps
  25. Standard                                 : Component
  26. Color space                              : YUV
  27. Chroma subsampling                       : 4:2:0
  28. Bit depth                                : 8 bits
  29. Scan type                                : MBAFF
  30. Scan order                               : Top Field First
  31. Bits/(Pixel*Frame)                       : 0.113
  32. Stream size                              : 3.24 GiB (89%)
  33. Color primaries                          : BT.709
  34. Transfer characteristics                 : BT.709
  35. Matrix coefficients                      : BT.709
  36.  
  37. Audio #1
  38. ID                                       : 130 (0x82)
  39. Menu ID                                  : 513 (0x201)
  40. Format                                   : E-AC-3
  41. Format/Info                              : Audio Coding 3
  42. Format settings, Endianness              : Big
  43. Codec ID                                 : 6
  44. Duration                                 : 1h 19mn
  45. Bit rate mode                            : Constant
  46. Bit rate                                 : 128 Kbps
  47. Channel(s)                               : 2 channels
  48. Channel positions                        : Front: L R
  49. Sampling rate                            : 48.0 KHz
  50. Compression mode                         : Lossy
  51. Stream size                              : 72.5 MiB (2%)
  52. Language                                 : French
  53.  
  54. Audio #2
  55. ID                                       : 131 (0x83)
  56. Menu ID                                  : 513 (0x201)
  57. Format                                   : E-AC-3
  58. Format/Info                              : Audio Coding 3
  59. Format settings, Endianness              : Big
  60. Codec ID                                 : 6
  61. Duration                                 : 1h 19mn
  62. Bit rate mode                            : Constant
  63. Bit rate                                 : 128 Kbps
  64. Channel(s)                               : 2 channels
  65. Channel positions                        : Front: L R
  66. Sampling rate                            : 48.0 KHz
  67. Compression mode                         : Lossy
  68. Stream size                              : 72.5 MiB (2%)
  69. Language                                 : qaa
  70.  
  71. Audio #3
  72. ID                                       : 132 (0x84)
  73. Menu ID                                  : 513 (0x201)
  74. Format                                   : E-AC-3
  75. Format/Info                              : Audio Coding 3
  76. Format settings, Endianness              : Big
  77. Codec ID                                 : 6
  78. Duration                                 : 1h 19mn
  79. Bit rate mode                            : Constant
  80. Bit rate                                 : 128 Kbps
  81. Channel(s)                               : 2 channels
  82. Channel positions                        : Front: L R
  83. Sampling rate                            : 48.0 KHz
  84. Compression mode                         : Lossy
  85. Stream size                              : 72.5 MiB (2%)
  86. Language                                 : qad
RAW Paste Data
Top