SHARE
TWEET

Untitled

a guest Nov 16th, 2019 78 Never
Not a member of Pastebin yet? Sign Up, it unlocks many cool features!
  1. General
  2. Unique ID                                : 202414703437605245203488183356525213136 (0x9847A762F0F9BE4BC615D7A02F5D75D0)
  3. Complete name                            : Alien.Warfare.2019.1080p.NF.WEB-DL.DDP5.1.x264-NTG.mkv
  4. Format                                   : Matroska
  5. Format version                           : Version 4
  6. File size                                : 4.89 GiB
  7. Duration                                 : 1 h 28 min
  8. Overall bit rate mode                    : Variable
  9. Overall bit rate                         : 7 918 kb/s
  10. Encoded date                             : UTC 2019-04-06 08:52:03
  11. Writing application                      : mkvmerge v21.0.0 ('Tardigrades Will Inherit The Earth') 64-bit
  12. Writing library                          : libebml v1.3.5 + libmatroska v1.4.8
  13.  
  14. Video
  15. ID                                       : 1
  16. Format                                   : AVC
  17. Format/Info                              : Advanced Video Codec
  18. Format profile                           : Main@L4
  19. Format settings                          : CABAC / 3 Ref Frames
  20. Format settings, CABAC                   : Yes
  21. Format settings, Reference frames        : 3 frames
  22. Codec ID                                 : V_MPEG4/ISO/AVC
  23. Duration                                 : 1 h 28 min
  24. Bit rate mode                            : Variable
  25. Bit rate                                 : 7 500 kb/s
  26. Maximum bit rate                         : 11.2 Mb/s
  27. Width                                    : 1 920 pixels
  28. Height                                   : 1 080 pixels
  29. Display aspect ratio                     : 16:9
  30. Frame rate mode                          : Constant
  31. Frame rate                               : 23.976 (24000/1001) FPS
  32. Color space                              : YUV
  33. Chroma subsampling                       : 4:2:0
  34. Bit depth                                : 8 bits
  35. Scan type                                : Progressive
  36. Bits/(Pixel*Frame)                       : 0.151
  37. Stream size                              : 4.49 GiB (92%)
  38. Writing library                          : x264 core 148 r2715 7e75228
  39. Encoding settings                        : cabac=1 / ref=3 / deblock=1:0:0 / analyse=0x1:0x111 / me=umh / subme=10 / psy=1 / psy_rd=1.00:0.00 / mixed_ref=1 / me_range=24 / chroma_me=1 / trellis=2 / 8x8dct=0 / cqm=0 / deadzone=21,11 / fast_pskip=1 / chroma_qp_offset=-2 / threads=8 / lookahead_threads=1 / sliced_threads=0 / nr=0 / decimate=1 / interlaced=0 / bluray_compat=0 / stitchable=1 / constrained_intra=0 / bframes=2 / b_pyramid=0 / b_adapt=2 / b_bias=0 / direct=3 / weightb=1 / open_gop=0 / weightp=2 / keyint=48 / keyint_min=25 / scenecut=0 / intra_refresh=0 / rc_lookahead=48 / rc=2pass / mbtree=1 / bitrate=7500 / ratetol=1.0 / qcomp=0.50 / qpmin=6 / qpmax=51 / qpstep=4 / cplxblur=20.0 / qblur=0.5 / vbv_maxrate=11250 / vbv_bufsize=15000 / nal_hrd=vbr / filler=0 / ip_ratio=1.40 / aq=1:1.00
  40. Default                                  : Yes
  41. Forced                                   : No
  42.  
  43. Audio
  44. ID                                       : 2
  45. Format                                   : E-AC-3
  46. Format/Info                              : Enhanced AC-3
  47. Commercial name                          : Dolby Digital Plus
  48. Codec ID                                 : A_EAC3
  49. Duration                                 : 1 h 28 min
  50. Bit rate mode                            : Constant
  51. Bit rate                                 : 640 kb/s
  52. Channel(s)                               : 6 channels
  53. Channel layout                           : L R C LFE Ls Rs
  54. Sampling rate                            : 48.0 kHz
  55. Frame rate                               : 31.250 FPS (1536 SPF)
  56. Compression mode                         : Lossy
  57. Stream size                              : 405 MiB (8%)
  58. Title                                    : English
  59. Language                                 : English
  60. Service kind                             : Complete Main
  61. Default                                  : Yes
  62. Forced                                   : No
  63.  
  64. Text #1
  65. ID                                       : 3
  66. Format                                   : UTF-8
  67. Codec ID                                 : S_TEXT/UTF8
  68. Codec ID/Info                            : UTF-8 Plain Text
  69. Duration                                 : 1 h 22 min
  70. Bit rate                                 : 63 b/s
  71. Count of elements                        : 1178
  72. Stream size                              : 38.4 KiB (0%)
  73. Language                                 : English
  74. Default                                  : No
  75. Forced                                   : No
  76.  
  77. Text #2
  78. ID                                       : 4
  79. Format                                   : UTF-8
  80. Codec ID                                 : S_TEXT/UTF8
  81. Codec ID/Info                            : UTF-8 Plain Text
  82. Duration                                 : 1 h 23 min
  83. Bit rate                                 : 68 b/s
  84. Count of elements                        : 1289
  85. Stream size                              : 41.5 KiB (0%)
  86. Title                                    : SDH
  87. Language                                 : English
  88. Default                                  : No
  89. Forced                                   : No
  90.  
  91. Text #3
  92. ID                                       : 5
  93. Format                                   : UTF-8
  94. Codec ID                                 : S_TEXT/UTF8
  95. Codec ID/Info                            : UTF-8 Plain Text
  96. Duration                                 : 1 h 22 min
  97. Bit rate                                 : 93 b/s
  98. Count of elements                        : 1170
  99. Stream size                              : 56.4 KiB (0%)
  100. Language                                 : Arabic
  101. Default                                  : No
  102. Forced                                   : No
  103.  
  104. Text #4
  105. ID                                       : 6
  106. Format                                   : UTF-8
  107. Codec ID                                 : S_TEXT/UTF8
  108. Codec ID/Info                            : UTF-8 Plain Text
  109. Duration                                 : 1 h 22 min
  110. Bit rate                                 : 51 b/s
  111. Count of elements                        : 876
  112. Stream size                              : 31.2 KiB (0%)
  113. Language                                 : Danish
  114. Default                                  : No
  115. Forced                                   : No
  116.  
  117. Text #5
  118. ID                                       : 7
  119. Format                                   : UTF-8
  120. Codec ID                                 : S_TEXT/UTF8
  121. Codec ID/Info                            : UTF-8 Plain Text
  122. Duration                                 : 1 h 22 min
  123. Bit rate                                 : 59 b/s
  124. Count of elements                        : 1167
  125. Stream size                              : 35.8 KiB (0%)
  126. Language                                 : German
  127. Default                                  : No
  128. Forced                                   : No
  129.  
  130. Text #6
  131. ID                                       : 8
  132. Format                                   : UTF-8
  133. Codec ID                                 : S_TEXT/UTF8
  134. Codec ID/Info                            : UTF-8 Plain Text
  135. Duration                                 : 1 h 22 min
  136. Bit rate                                 : 104 b/s
  137. Count of elements                        : 1156
  138. Stream size                              : 63.1 KiB (0%)
  139. Language                                 : Greek
  140. Default                                  : No
  141. Forced                                   : No
  142.  
  143. Text #7
  144. ID                                       : 9
  145. Format                                   : UTF-8
  146. Codec ID                                 : S_TEXT/UTF8
  147. Codec ID/Info                            : UTF-8 Plain Text
  148. Duration                                 : 1 h 22 min
  149. Bit rate                                 : 63 b/s
  150. Count of elements                        : 1170
  151. Stream size                              : 38.6 KiB (0%)
  152. Language                                 : Spanish
  153. Default                                  : No
  154. Forced                                   : No
  155.  
  156. Text #8
  157. ID                                       : 10
  158. Format                                   : UTF-8
  159. Codec ID                                 : S_TEXT/UTF8
  160. Codec ID/Info                            : UTF-8 Plain Text
  161. Duration                                 : 1 h 22 min
  162. Bit rate                                 : 60 b/s
  163. Count of elements                        : 1169
  164. Stream size                              : 36.4 KiB (0%)
  165. Title                                    : European
  166. Language                                 : Spanish
  167. Default                                  : No
  168. Forced                                   : No
  169.  
  170. Text #9
  171. ID                                       : 11
  172. Format                                   : UTF-8
  173. Codec ID                                 : S_TEXT/UTF8
  174. Codec ID/Info                            : UTF-8 Plain Text
  175. Duration                                 : 1 h 22 min
  176. Bit rate                                 : 50 b/s
  177. Count of elements                        : 917
  178. Stream size                              : 30.6 KiB (0%)
  179. Language                                 : Finnish
  180. Default                                  : No
  181. Forced                                   : No
  182.  
  183. Text #10
  184. ID                                       : 12
  185. Format                                   : UTF-8
  186. Codec ID                                 : S_TEXT/UTF8
  187. Codec ID/Info                            : UTF-8 Plain Text
  188. Duration                                 : 1 h 22 min
  189. Bit rate                                 : 54 b/s
  190. Count of elements                        : 1169
  191. Stream size                              : 33.0 KiB (0%)
  192. Language                                 : French
  193. Default                                  : No
  194. Forced                                   : No
  195.  
  196. Text #11
  197. ID                                       : 13
  198. Format                                   : UTF-8
  199. Codec ID                                 : S_TEXT/UTF8
  200. Codec ID/Info                            : UTF-8 Plain Text
  201. Duration                                 : 1 h 22 min
  202. Bit rate                                 : 90 b/s
  203. Count of elements                        : 1170
  204. Stream size                              : 54.8 KiB (0%)
  205. Language                                 : Hebrew
  206. Default                                  : No
  207. Forced                                   : No
  208.  
  209. Text #12
  210. ID                                       : 14
  211. Format                                   : UTF-8
  212. Codec ID                                 : S_TEXT/UTF8
  213. Codec ID/Info                            : UTF-8 Plain Text
  214. Duration                                 : 1 h 22 min
  215. Bit rate                                 : 62 b/s
  216. Count of elements                        : 1164
  217. Stream size                              : 38.0 KiB (0%)
  218. Language                                 : Italian
  219. Default                                  : No
  220. Forced                                   : No
  221.  
  222. Text #13
  223. ID                                       : 15
  224. Format                                   : UTF-8
  225. Codec ID                                 : S_TEXT/UTF8
  226. Codec ID/Info                            : UTF-8 Plain Text
  227. Duration                                 : 1 h 22 min
  228. Bit rate                                 : 44 b/s
  229. Count of elements                        : 1085
  230. Stream size                              : 26.7 KiB (0%)
  231. Language                                 : Japanese
  232. Default                                  : No
  233. Forced                                   : No
  234.  
  235. Text #14
  236. ID                                       : 16
  237. Format                                   : UTF-8
  238. Codec ID                                 : S_TEXT/UTF8
  239. Codec ID/Info                            : UTF-8 Plain Text
  240. Duration                                 : 1 h 22 min
  241. Bit rate                                 : 67 b/s
  242. Count of elements                        : 1174
  243. Stream size                              : 40.7 KiB (0%)
  244. Language                                 : Korean
  245. Default                                  : No
  246. Forced                                   : No
  247.  
  248. Text #15
  249. ID                                       : 17
  250. Format                                   : UTF-8
  251. Codec ID                                 : S_TEXT/UTF8
  252. Codec ID/Info                            : UTF-8 Plain Text
  253. Duration                                 : 1 h 22 min
  254. Bit rate                                 : 48 b/s
  255. Count of elements                        : 793
  256. Stream size                              : 29.1 KiB (0%)
  257. Language                                 : Norwegian Bokmal
  258. Default                                  : No
  259. Forced                                   : No
  260.  
  261. Text #16
  262. ID                                       : 18
  263. Format                                   : UTF-8
  264. Codec ID                                 : S_TEXT/UTF8
  265. Codec ID/Info                            : UTF-8 Plain Text
  266. Duration                                 : 1 h 22 min
  267. Bit rate                                 : 61 b/s
  268. Count of elements                        : 1156
  269. Stream size                              : 37.4 KiB (0%)
  270. Language                                 : Dutch
  271. Default                                  : No
  272. Forced                                   : No
  273.  
  274. Text #17
  275. ID                                       : 19
  276. Format                                   : UTF-8
  277. Codec ID                                 : S_TEXT/UTF8
  278. Codec ID/Info                            : UTF-8 Plain Text
  279. Duration                                 : 1 h 22 min
  280. Bit rate                                 : 55 b/s
  281. Count of elements                        : 1155
  282. Stream size                              : 33.6 KiB (0%)
  283. Language                                 : Polish
  284. Default                                  : No
  285. Forced                                   : No
  286.  
  287. Text #18
  288. ID                                       : 20
  289. Format                                   : UTF-8
  290. Codec ID                                 : S_TEXT/UTF8
  291. Codec ID/Info                            : UTF-8 Plain Text
  292. Duration                                 : 1 h 22 min
  293. Bit rate                                 : 64 b/s
  294. Count of elements                        : 1157
  295. Stream size                              : 38.7 KiB (0%)
  296. Language                                 : Portuguese
  297. Default                                  : No
  298. Forced                                   : No
  299.  
  300. Text #19
  301. ID                                       : 21
  302. Format                                   : UTF-8
  303. Codec ID                                 : S_TEXT/UTF8
  304. Codec ID/Info                            : UTF-8 Plain Text
  305. Duration                                 : 1 h 22 min
  306. Bit rate                                 : 61 b/s
  307. Count of elements                        : 1159
  308. Stream size                              : 36.8 KiB (0%)
  309. Title                                    : Brazilian
  310. Language                                 : Portuguese
  311. Default                                  : No
  312. Forced                                   : No
  313.  
  314. Text #20
  315. ID                                       : 22
  316. Format                                   : UTF-8
  317. Codec ID                                 : S_TEXT/UTF8
  318. Codec ID/Info                            : UTF-8 Plain Text
  319. Duration                                 : 1 h 22 min
  320. Bit rate                                 : 60 b/s
  321. Count of elements                        : 1169
  322. Stream size                              : 36.7 KiB (0%)
  323. Language                                 : Romanian
  324. Default                                  : No
  325. Forced                                   : No
  326.  
  327. Text #21
  328. ID                                       : 23
  329. Format                                   : UTF-8
  330. Codec ID                                 : S_TEXT/UTF8
  331. Codec ID/Info                            : UTF-8 Plain Text
  332. Duration                                 : 1 h 22 min
  333. Bit rate                                 : 56 b/s
  334. Count of elements                        : 857
  335. Stream size                              : 34.2 KiB (0%)
  336. Language                                 : Swedish
  337. Default                                  : No
  338. Forced                                   : No
  339.  
  340. Text #22
  341. ID                                       : 24
  342. Format                                   : UTF-8
  343. Codec ID                                 : S_TEXT/UTF8
  344. Codec ID/Info                            : UTF-8 Plain Text
  345. Duration                                 : 1 h 22 min
  346. Bit rate                                 : 146 b/s
  347. Count of elements                        : 1171
  348. Stream size                              : 88.4 KiB (0%)
  349. Language                                 : Thai
  350. Default                                  : No
  351. Forced                                   : No
  352.  
  353. Text #23
  354. ID                                       : 25
  355. Format                                   : UTF-8
  356. Codec ID                                 : S_TEXT/UTF8
  357. Codec ID/Info                            : UTF-8 Plain Text
  358. Duration                                 : 1 h 22 min
  359. Bit rate                                 : 59 b/s
  360. Count of elements                        : 1168
  361. Stream size                              : 35.8 KiB (0%)
  362. Language                                 : Turkish
  363. Default                                  : No
  364. Forced                                   : No
  365.  
  366. Text #24
  367. ID                                       : 26
  368. Format                                   : UTF-8
  369. Codec ID                                 : S_TEXT/UTF8
  370. Codec ID/Info                            : UTF-8 Plain Text
  371. Duration                                 : 1 h 22 min
  372. Bit rate                                 : 57 b/s
  373. Count of elements                        : 1171
  374. Stream size                              : 34.9 KiB (0%)
  375. Title                                    : Simplified
  376. Language                                 : Chinese
  377. Default                                  : No
  378. Forced                                   : No
  379.  
  380. Text #25
  381. ID                                       : 27
  382. Format                                   : UTF-8
  383. Codec ID                                 : S_TEXT/UTF8
  384. Codec ID/Info                            : UTF-8 Plain Text
  385. Duration                                 : 1 h 22 min
  386. Bit rate                                 : 59 b/s
  387. Count of elements                        : 1171
  388. Stream size                              : 35.6 KiB (0%)
  389. Title                                    : Traditional
  390. Language                                 : Chinese
  391. Default                                  : No
  392. Forced                                   : No
RAW Paste Data
We use cookies for various purposes including analytics. By continuing to use Pastebin, you agree to our use of cookies as described in the Cookies Policy. OK, I Understand
Top