Guest User

Untitled

a guest
Jan 1st, 2021
38
Never
Not a member of Pastebin yet? Sign Up, it unlocks many cool features!
  1. Complete name : Ostorozhno.Kenguru.2020.BDRip.720p.ELEKTRI4KA.UNIONGANG .mkv
  2. Format : Matroska
  3. Format version : Version 4 / Version 2
  4. File size : 4.32 GiB
  5. Duration : 1 h 32 min
  6. Overall bit rate : 6 716 kb/s
  7. Movie name : .ELEKTRI4KA.UNIONGANG.
  8. Encoded date : UTC 2021-01-01 16:11:36
  9. Writing application : mkvmerge v8.3.0 ('Over the Horizon') 64bit
  10. Writing library : libebml v1.3.1 + libmatroska v1.4.2
  11.  
  12. Video
  13. ID : 1
  14. Format : AVC
  15. Format/Info : Advanced Video Codec
  16. Format profile : High@L4.1
  17. Format settings, CABAC : Yes
  18. Format settings, Reference frames : 9 frames
  19. Codec ID : V_MPEG4/ISO/AVC
  20. Duration : 1 h 32 min
  21. Bit rate : 5 500 kb/s
  22. Width : 1 280 pixels
  23. Height : 690 pixels
  24. Display aspect ratio : 1.85:1
  25. Frame rate mode : Constant
  26. Frame rate : 24.000 FPS
  27. Color space : YUV
  28. Chroma subsampling : 4:2:0
  29. Bit depth : 8 bits
  30. Scan type : Progressive
  31. Bits/(Pixel*Frame) : 0.259
  32. Stream size : 3.54 GiB (82%)
  33. Title : .ELEKTRI4KA.UNIONGANG.
  34. Writing library : x264 core 161 r3020 d198931
  35. Encoding settings : cabac=1 / ref=9 / deblock=1:-3:-3 / analyse=0x3:0x133 / me=umh / subme=10 / psy=1 / psy_rd=1.00:0.00 / mixed_ref=1 / me_range=32 / chroma_me=1 / trellis=2 / 8x8dct=1 / cqm=0 / deadzone=21,11 / fast_pskip=0 / chroma_qp_offset=-2 / threads=33 / lookahead_threads=5 / sliced_threads=0 / nr=0 / decimate=0 / interlaced=0 / bluray_compat=0 / constrained_intra=0 / bframes=8 / b_pyramid=2 / b_adapt=2 / b_bias=0 / direct=3 / weightb=0 / open_gop=0 / weightp=2 / keyint=240 / keyint_min=24 / scenecut=40 / intra_refresh=0 / rc=2pass / mbtree=0 / bitrate=5500 / ratetol=1.0 / qcomp=0.60 / qpmin=0 / qpmax=69 / qpstep=4 / cplxblur=20.0 / qblur=0.5 / ip_ratio=1.40 / pb_ratio=1.30 / aq=1:1.00
  36. Default : Yes
  37. Forced : No
  38. Color range : Limited
  39. Color primaries : BT.709
  40. Transfer characteristics : BT.709
  41. Matrix coefficients : BT.709
  42.  
  43. Audio #1
  44. ID : 2
  45. Format : AC-3
  46. Format/Info : Audio Coding 3
  47. Mode extension : CM (complete main)
  48. Format settings, Endianness : Big
  49. Codec ID : A_AC3
  50. Duration : 1 h 32 min
  51. Bit rate mode : Constant
  52. Bit rate : 384 kb/s
  53. Channel(s) : 6 channels
  54. Channel positions : Front: L C R, Side: L R, LFE
  55. Sampling rate : 48.0 kHz
  56. Frame rate : 31.250 FPS (1536 spf)
  57. Bit depth : 16 bits
  58. Compression mode : Lossy
  59. Stream size : 253 MiB (6%)
  60. Title : DUB (iTunes)
  61. Language : Russian
  62. Default : Yes
  63. Forced : Yes
  64.  
  65. Audio #2
  66. ID : 3
  67. Format : AC-3
  68. Format/Info : Audio Coding 3
  69. Mode extension : CM (complete main)
  70. Format settings, Endianness : Big
  71. Codec ID : A_AC3
  72. Duration : 1 h 32 min
  73. Bit rate mode : Constant
  74. Bit rate : 192 kb/s
  75. Channel(s) : 2 channels
  76. Channel positions : Front: L R
  77. Sampling rate : 48.0 kHz
  78. Frame rate : 31.250 FPS (1536 spf)
  79. Bit depth : 16 bits
  80. Compression mode : Lossy
  81. Stream size : 126 MiB (3%)
  82. Title : DUB (Line)
  83. Language : Ukrainian
  84. Default : No
  85. Forced : No
  86.  
  87. Audio #3
  88. ID : 4
  89. Format : AC-3
  90. Format/Info : Audio Coding 3
  91. Mode extension : CM (complete main)
  92. Format settings, Endianness : Big
  93. Codec ID : A_AC3
  94. Duration : 1 h 32 min
  95. Bit rate mode : Constant
  96. Bit rate : 640 kb/s
  97. Channel(s) : 6 channels
  98. Channel positions : Front: L C R, Side: L R, LFE
  99. Sampling rate : 48.0 kHz
  100. Frame rate : 31.250 FPS (1536 spf)
  101. Bit depth : 16 bits
  102. Compression mode : Lossy
  103. Stream size : 421 MiB (10%)
  104. Title : Original
  105. Language : German
  106. Default : No
  107. Forced : No
  108.  
  109. Text
  110. ID : 5
  111. Format : UTF-8
  112. Codec ID : S_TEXT/UTF8
  113. Codec ID/Info : UTF-8 Plain Text
  114. Duration : 1 h 31 min
  115. Bit rate : 69 b/s
  116. Count of elements : 1313
  117. Stream size : 46.6 KiB (0%)
  118. Language : English
  119. Default : No
  120. Forced : No
  121.  
  122. Menu
  123. 00:00:00.000 : :Kapitel 01
  124. 00:10:57.042 : :Kapitel 02
  125. 00:21:11.083 : :Kapitel 03
  126. 00:30:18.375 : :Kapitel 04
  127. 00:38:30.417 : :Kapitel 05
  128. 00:42:52.208 : :Kapitel 06
  129. 00:48:18.083 : :Kapitel 07
  130. 00:52:00.375 : :Kapitel 08
  131. 01:03:33.042 : :Kapitel 09
  132. 01:15:15.042 : :Kapitel 10
  133. 01:21:20.625 : :Kapitel 11
  134. 01:26:58.000 : :Kapitel 12
RAW Paste Data

Adblocker detected! Please consider disabling it...

We've detected AdBlock Plus or some other adblocking software preventing Pastebin.com from fully loading.

We don't have any obnoxious sound, or popup ads, we actively block these annoying types of ads!

Please add Pastebin.com to your ad blocker whitelist or disable your adblocking software.

×