daily pastebin goal
37%
SHARE
TWEET

Untitled

a guest Jan 11th, 2019 296 Never
Not a member of Pastebin yet? Sign Up, it unlocks many cool features!
  1.                                        ``.--::///////::-..`                                          
  2.                              `.:+sydmmmdhhyysssssssssyhhdmmmdhso/-`                                
  3.                         .:ohmNdyo+:.`                       .-/+shmmdy/:`                          
  4.                     .+ymmy+:`                                       .:+hmyy/.                      
  5.                  -smmy/.                                              . `./ymms:                    
  6.               .ommo-                                                  .      .+dNy:                
  7.             -hNy-           .`                                        `         .omm/`              
  8.           .hNs.             .sdo.                                                  :yNo`            
  9.          +Nh.                 +MMms+:.                          `:oydmmd-          . :dm/          
  10.         yMo                    -smNMMMNds:`                .:+sdMMMmo-             -   oNs`        
  11.        sM/                         .-/+o++o+-            /mNmddddy:                `    :oh`        
  12.       :Ms                                               `-`                              -Nh        
  13.       hN.                                                                                `oM/      
  14.      `Nm                                 `-/++////:.` `                                   `Nd      
  15.      `Nm                            ./ohmMMMMMMMMMMMMNNNdy+::::-                           mm`      
  16.       yM-                    `:+oshNMMMMMMMMMMMMMMMMMMMMMMMMMMMMNh+.                      `Nm      
  17.       -My                 `/dMMMMMNdys+:..```.:/+oo:-...:/oshMMMMMMMmy/`                  :Ms      
  18.        oMo               +NMMNy/-`                           +o-.hMhyyNm.                `mN.      
  19.         oMs             .MMNo`                                    `   `hm.              `dN:        
  20.          /Nd-           ym+`                                            +:             -mN-        
  21.           `yNy.        `/                                                            `sNh.          
  22.             -yNy-                                                                  `oNd:            
  23.               .sNmo.                                                             :yNh:              
  24.                  :yNdo-                                                      `:smmo.                
  25.                     :odNh+-`                                             `:ohNh+.                  
  26.                        `:ohmmyo/-`                                 `./oymmho:`                      
  27.                             `:+sdmmdys+/:-.```         ```.-:/+sydmmds+:`                          
  28.                                   `.:/osyhhdmmmmmmmmmmmmmdhhys+/:.`                                
  29.  
  30.                                      HDRINVASION ;(
  31.  
  32.  
  33.  
  34.  
  35.  
  36.  
  37. HDRINVASION
  38.  
  39.  
  40. Only work with a uhd player for LG Oled 2016 models
  41. It should work with sony x700 player, let us know if it doesn't
  42.  
  43.  
  44. Complete name               : BlacKkKlansman.2018.DOLBY VISION UHD 2160p BLURAY MP4 REMUX -HDRINVASION
  45. IMDB                        : https://www.imdb.com/title/tt7349662/
  46.  
  47.  
  48.  
  49.  
  50. Format                                   : MPEG-4
  51. Format profile                           : Base Media / Version 2
  52. Codec ID                                 : mp42 (mp42/dby1/isom)
  53. File size                                : 71.7 GiB
  54. Duration                                 : 2 h 14 min
  55. Overall bit rate mode                    : Variable
  56. Overall bit rate                         : 76.1 Mb/s
  57. Encoded date                             : UTC 2019-01-07 10:39:05
  58. Tagged date                              : UTC 2019-01-07 10:39:05
  59.  
  60. Video #1
  61. ID                                       : 1
  62. Format                                   : HEVC
  63. Format/Info                              : High Efficiency Video Coding
  64. Commercial name                          : HDR10
  65. Format profile                           : Main 10@L5.1@High
  66. Codec ID                                 : hev1
  67. Codec ID/Info                            : High Efficiency Video Coding
  68. Duration                                 : 2 h 14 min
  69. Bit rate                                 : 68.6 Mb/s
  70. Width                                    : 3 840 pixels
  71. Height                                   : 2 160 pixels
  72. Display aspect ratio                     : 16:9
  73. Frame rate mode                          : Constant
  74. Frame rate                               : 23.976 (24000/1001) FPS
  75. Color space                              : YUV
  76. Chroma subsampling                       : 4:2:0 (Type 2)
  77. Bit depth                                : 10 bits
  78. Bits/(Pixel*Frame)                       : 0.345
  79. Stream size                              : 64.6 GiB (90%)
  80. Default                                  : No
  81. Encoded date                             : UTC 2019-01-07 10:39:05
  82. Tagged date                              : UTC 2019-01-07 10:39:05
  83. Color range                              : Limited
  84. Color primaries                          : BT.2020
  85. Transfer characteristics                 : PQ
  86. Matrix coefficients                      : BT.2020 non-constant
  87. Mastering display color primaries        : Display P3
  88. Mastering display luminance              : min: 0.0050 cd/m2, max: 1000 cd/m2
  89. Maximum Content Light Level              : 552 cd/m2
  90. Maximum Frame-Average Light Level        : 132 cd/m2
  91. Codec configuration box                  : hvcC
  92.  
  93. Video #2
  94. ID                                       : 2
  95. Format                                   : HEVC
  96. Format/Info                              : High Efficiency Video Coding
  97. Commercial name                          : HDR10
  98. Format profile                           : Main 10@L5.1@High
  99. Dolby Vision                             : 1.0, dvhe.07.06, EL+RPU
  100. Codec ID                                 : dvhe
  101. Codec ID/Info                            : High Efficiency Video Coding with Dolby Vision
  102. Duration                                 : 2 h 14 min
  103. Bit rate                                 : 7 339 kb/s
  104. Width                                    : 1 920 pixels
  105. Height                                   : 1 080 pixels
  106. Display aspect ratio                     : 16:9
  107. Frame rate mode                          : Constant
  108. Frame rate                               : 23.976 (24000/1001) FPS
  109. Color space                              : YUV
  110. Chroma subsampling                       : 4:2:0 (Type 2)
  111. Bit depth                                : 10 bits
  112. Bits/(Pixel*Frame)                       : 0.148
  113. Stream size                              : 6.91 GiB (10%)
  114. Default                                  : No
  115. Encoded date                             : UTC 2019-01-07 10:39:05
  116. Tagged date                              : UTC 2019-01-07 10:39:05
  117. Color range                              : Limited
  118. Color primaries                          : BT.2020
  119. Transfer characteristics                 : PQ
  120. Matrix coefficients                      : BT.2020 non-constant
  121. Mastering display color primaries        : Display P3
  122. Mastering display luminance              : min: 0.0050 cd/m2, max: 1000 cd/m2
  123. Codec configuration box                  : hvcC+dvcC
  124.  
  125. Audio
  126. ID                                       : 3
  127. Format                                   : AAC LC
  128. Format/Info                              : Advanced Audio Codec Low Complexity
  129. Codec ID                                 : mp4a-40-2
  130. Duration                                 : 2 h 14 min
  131. Bit rate mode                            : Variable
  132. Bit rate                                 : 224 kb/s
  133. Maximum bit rate                         : 240 kb/s
  134. Channel(s)                               : 6 channels
  135. Channel layout                           : C L R Ls Rs LFE
  136. Sampling rate                            : 48.0 kHz
  137. Frame rate                               : 46.875 FPS (1024 SPF)
  138. Compression mode                         : Lossy
  139. Stream size                              : 216 MiB (0%)
  140. Language                                 : English
  141. Default                                  : No
  142. Encoded date                             : UTC 2019-01-07 10:39:05
  143. Tagged date                              : UTC 2019-01-07 10:39:05
  144.  
  145.  
  146.  
  147.  
  148.  
  149.  
  150.  
  151.  
  152. If you enjoy this release, please seed as much as you can!
  153. Our team worked hard on this capture to get the best UHD HDR capture quality.
  154. And follow: https://www.instagram.com/hardcorerap4life/
RAW Paste Data
We use cookies for various purposes including analytics. By continuing to use Pastebin, you agree to our use of cookies as described in the Cookies Policy. OK, I Understand
 
Top