Advertisement
Guest User

Untitled

a guest
Sep 23rd, 2020
159
0
Never
Not a member of Pastebin yet? Sign Up, it unlocks many cool features!
text 33.04 KB | None | 0 0
  1.  
  2. ------------------------- System Environment -------------------------
  3.  
  4. StaxRip : 2.1.3.7
  5. Windows : Windows 10 Pro 1909
  6. Language : English (United States)
  7. CPU : AMD Ryzen 9 3900X 12-Core Processor
  8. GPU : NVIDIA GeForce GTX 1060 6GB
  9. Resolution : 3840 x 2160
  10. DPI : 192
  11.  
  12. ----------------------- Media Info Source File -----------------------
  13.  
  14. Z:\Next\MovieNameGoesHere.mkv
  15.  
  16. General
  17. Complete name : Z:\Next\MovieNameGoesHere.mkv
  18. Format : Matroska
  19. Format version : Version 4
  20. File size : 20.1 GiB
  21. Duration : 1 h 51 min
  22. Overall bit rate mode : Variable
  23. Overall bit rate : 25.7 Mb/s
  24. Encoded date : UTC 2020-08-05 16:35:47
  25. Writing application : mkvmerge v49.0.0 ('Sick Of Losing Soulmates') 64-bit
  26. Writing library : libebml v1.4.0 + libmatroska v1.6.1
  27.  
  28. Video
  29. ID : 1
  30. Format : AVC
  31. Format/Info : Advanced Video Codec
  32. Format profile : High@L4.1
  33. Format settings : CABAC / 4 Ref Frames
  34. Format, CABAC : Yes
  35. Format, Reference frames : 4 frames
  36. Codec ID : V_MPEG4/ISO/AVC
  37. Duration : 1 h 51 min
  38. Bit rate mode : Variable
  39. Bit rate : 23.5 Mb/s
  40. Maximum bit rate : 30.0 Mb/s
  41. Width : 1 920 pixels
  42. Height : 1 080 pixels
  43. Display aspect ratio : 16:9
  44. Frame rate mode : Constant
  45. Frame rate : 23.976 (24000/1001) FPS
  46. Standard : NTSC
  47. Color space : YUV
  48. Chroma subsampling : 4:2:0
  49. Bit depth : 8 bits
  50. Scan type : Progressive
  51. Bits/(Pixel*Frame) : 0.473
  52. Stream size : 18.4 GiB (91%)
  53. Title : English
  54. Language : English
  55. Default : Yes
  56. Forced : No
  57. Color range : Limited
  58. Color primaries : BT.709
  59. Transfer characteristics : BT.709
  60. Matrix coefficients : BT.709
  61.  
  62. Audio
  63. ID : 2
  64. Format : DTS XLL
  65. Format/Info : Digital Theater Systems
  66. Commercial name : DTS-HD Master Audio
  67. Codec ID : A_DTS
  68. Duration : 1 h 51 min
  69. Bit rate mode : Variable
  70. Bit rate : 2 175 kb/s
  71. Channel(s) : 6 channels
  72. Channel layout : C L R Ls Rs LFE
  73. Sampling rate : 48.0 kHz
  74. Frame rate : 93.750 FPS (512 SPF)
  75. Bit depth : 24 bits
  76. Compression mode : Lossless
  77. Stream size : 1.70 GiB (8%)
  78. Title : English
  79. Language : English
  80. Default : Yes
  81. Forced : No
  82.  
  83. Text
  84. ID : 3
  85. Format : PGS
  86. Codec ID : S_HDMV/PGS
  87. Codec ID/Info : Picture based subtitle format used on BDs/HD-DVDs
  88. Duration : 1 h 51 min
  89. Bit rate : 23.8 kb/s
  90. Count of elements : 2881
  91. Stream size : 19.1 MiB (0%)
  92. Title : English (SDH)
  93. Language : English
  94. Default : No
  95. Forced : No
  96.  
  97. Menu
  98. 00 : 00:00.000 : :Chapter 01
  99. 00 : 09:41.164 : :Chapter 02
  100. 00 : 13:48.411 : :Chapter 03
  101. 00 : 21:20.780 : :Chapter 04
  102. 00 : 29:40.153 : :Chapter 05
  103. 00 : 42:27.045 : :Chapter 06
  104. 00 : 56:08.782 : :Chapter 07
  105. 01 : 06:30.820 : :Chapter 08
  106. 01 : 13:13.723 : :Chapter 09
  107. 01 : 29:40.125 : :Chapter 10
  108. 01 : 37:29.260 : :Chapter 11
  109. 01 : 47:43.666 : :Chapter 12
  110.  
  111. ------------------------------ Demux MKV ------------------------------
  112.  
  113. mkvextract 47
  114.  
  115. C:\Aps\StaxRip-x64-2.1.3.7-beta\Apps\Support\MKVToolNix\mkvextract.exe Z:\Next\MovieNameGoesHere.mkv tracks 2:"C:\Movies\MovieNameGoesHere_temp\MovieNameGoesHere ID3 English {English (SDH)}.sup" 1:"C:\Movies\MovieNameGoesHere_temp\MovieNameGoesHere ID1 English {English}.dtshd" --ui-language en
  116.  
  117. Extracting track 1 with the CodecID 'A_DTS' to the file 'C:\Movies\MovieNameGoesHere_temp\MovieNameGoesHere ID1 English {English}.dtshd'. Container format: Digital Theater System (DTS)
  118. Extracting track 2 with the CodecID 'S_HDMV/PGS' to the file 'C:\Movies\MovieNameGoesHere_temp\MovieNameGoesHere ID3 English {English (SDH)}.sup'. Container format: SUP
  119.  
  120. Start: 9:19:11 PM
  121. End: 9:19:56 PM
  122. Duration: 00:00:44
  123.  
  124. General
  125. Complete name : C:\Movies\MovieNameGoesHere_temp\MovieNameGoesHere ID1 English {English}.dtshd
  126. Format : DTS XLL
  127. Format/Info : Digital Theater Systems
  128. Commercial name : DTS-HD Master Audio
  129. File size : 1.70 GiB
  130. Overall bit rate mode : Variable
  131.  
  132. Audio
  133. Format : DTS XLL
  134. Format/Info : Digital Theater Systems
  135. Commercial name : DTS-HD Master Audio
  136. Bit rate mode : Variable
  137. Channel(s) : 6 channels
  138. Channel layout : C L R Ls Rs LFE
  139. Sampling rate : 48.0 kHz
  140. Frame rate : 93.750 FPS (512 SPF)
  141. Bit depth : 24 bits
  142. Compression mode : Lossless
  143.  
  144. ------------------------- Demux xml chapters -------------------------
  145.  
  146. mkvextract 47
  147.  
  148. C:\Aps\StaxRip-x64-2.1.3.7-beta\Apps\Support\MKVToolNix\mkvextract.exe Z:\Next\MovieNameGoesHere.mkv chapters C:\Movies\MovieNameGoesHere_temp\MovieNameGoesHere_chapters.xml
  149.  
  150. File 'Z:\Next\MovieNameGoesHere.mkv': container: Matroska
  151. Track ID 0: video (MPEG-4p10/AVC/H.264)
  152. Track ID 1: audio (DTS-HD Master Audio)
  153. Track ID 2: subtitles (HDMV PGS)
  154. Chapters: 12 entries
  155.  
  156. Start: 9:19:56 PM
  157. End: 9:19:56 PM
  158. Duration: 00:00:00
  159.  
  160. ------------------------- Demux ogg chapters -------------------------
  161.  
  162. mkvextract 47
  163.  
  164. C:\Aps\StaxRip-x64-2.1.3.7-beta\Apps\Support\MKVToolNix\mkvextract.exe Z:\Next\MovieNameGoesHere.mkv chapters C:\Movies\MovieNameGoesHere_temp\MovieNameGoesHere_chapters.txt --simple
  165.  
  166. File 'Z:\Next\MovieNameGoesHere.mkv': container: Matroska
  167. Track ID 0: video (MPEG-4p10/AVC/H.264)
  168. Track ID 1: audio (DTS-HD Master Audio)
  169. Track ID 2: subtitles (HDMV PGS)
  170. Chapters: 12 entries
  171.  
  172. Start: 9:19:56 PM
  173. End: 9:19:56 PM
  174. Duration: 00:00:00
  175.  
  176. ---------------------- Indexing using ffmsindex ----------------------
  177.  
  178. C:\Aps\StaxRip-x64-2.1.3.7-beta\Apps\Plugins\Dual\ffms2\ffmsindex.exe Z:\Next\MovieNameGoesHere.mkv C:\Movies\MovieNameGoesHere_temp\MovieNameGoesHere.ffindex
  179.  
  180. Writing index... done.
  181.  
  182. Start: 9:19:56 PM
  183. End: 9:20:41 PM
  184. Duration: 00:00:45
  185.  
  186. ------------------------------ Auto Crop ------------------------------
  187.  
  188. AutoCrop 1.0.0.0
  189.  
  190. C:\Aps\StaxRip-x64-2.1.3.7-beta\Apps\Support\AutoCrop\AutoCrop.exe C:\Movies\MovieNameGoesHere_temp\MovieNameGoesHere_source.avs 10
  191.  
  192. 0,132,0,132
  193.  
  194. Start: 9:20:42 PM
  195. End: 9:20:43 PM
  196. Duration: 00:00:00
  197.  
  198. --------------------------- AviSynth Script ---------------------------
  199.  
  200. AddAutoloadDir("C:\Aps\StaxRip-x64-2.1.3.7-beta\Apps\FrameServer\AviSynth\plugins")
  201. AddAutoloadDir("C:\Users\Batman\AppData\Roaming\StaxRip\Plugins\AviSynth")
  202. LoadPlugin("C:\Aps\StaxRip-x64-2.1.3.7-beta\Apps\Plugins\Dual\ffms2\ffms2.dll")
  203. LoadPlugin("C:\Aps\StaxRip-x64-2.1.3.7-beta\Apps\Plugins\Dual\KNLMeansCL\KNLMeansCL.dll")
  204. FFVideoSource("Z:\Next\MovieNameGoesHere.mkv", colorspace = "YV12", \
  205. cachefile = "C:\Movies\MovieNameGoesHere_temp\MovieNameGoesHere.ffindex")
  206. Crop(0, 132, -0, -132)
  207. KNLMeansCL(D = 1, A = 1, h = 2, device_type="auto")
  208.  
  209. ------------------------- Source Script Info -------------------------
  210.  
  211. Width : 1920
  212. Height : 1080
  213. Frames : 160929
  214. Time : 01:51:52.080
  215. Framerate : 23.976023 (24000/1001)
  216. Format : YUV420P8
  217.  
  218. ------------------------- Target Script Info -------------------------
  219.  
  220. Width : 1920
  221. Height : 816
  222. Frames : 160929
  223. Time : 01:51:52.080
  224. Framerate : 23.976023 (24000/1001)
  225. Format : YUV420P8
  226.  
  227. ---------------------- Media Info Audio Source 1 ----------------------
  228.  
  229. General
  230. Complete name : C:\Movies\MovieNameGoesHere_temp\MovieNameGoesHere ID1 English {English}.dtshd
  231. Format : DTS XLL
  232. Format/Info : Digital Theater Systems
  233. Commercial name : DTS-HD Master Audio
  234. File size : 1.70 GiB
  235. Overall bit rate mode : Variable
  236.  
  237. Audio
  238. Format : DTS XLL
  239. Format/Info : Digital Theater Systems
  240. Commercial name : DTS-HD Master Audio
  241. Bit rate mode : Variable
  242. Channel(s) : 6 channels
  243. Channel layout : C L R Ls Rs LFE
  244. Sampling rate : 48.0 kHz
  245. Frame rate : 93.750 FPS (512 SPF)
  246. Bit depth : 24 bits
  247. Compression mode : Lossless
  248.  
  249. ----------------------------- Find Gain 1 -----------------------------
  250.  
  251. ffmpeg N-98276-g1d5d8a30b4-g842bc312ad-gcc10.1.0 Patman
  252.  
  253. C:\Aps\StaxRip-x64-2.1.3.7-beta\Apps\Encoders\ffmpeg\ffmpeg.exe -i "C:\Movies\MovieNameGoesHere_temp\MovieNameGoesHere ID1 English {English}.dtshd" -sn -vn -hide_banner -af volumedetect -f null NUL
  254.  
  255. Input #0, dts, from 'C:\Movies\MovieNameGoesHere_temp\MovieNameGoesHere ID1 English {English}.dtshd':
  256. Duration: N/A, start: 0.000000, bitrate: N/A
  257. Stream #0:0: Audio: dts (DTS-HD MA), 48000 Hz, 5.1(side), s32p (24 bit)
  258. Stream mapping:
  259. Stream #0:0 -> #0:0 (dts (dca) -> pcm_s16le (native))
  260. Press [q] to stop, [?] for help
  261. Output #0, null, to 'NUL':
  262. Metadata:
  263. encoder : Lavf58.47.100
  264. Stream #0:0: Audio: pcm_s16le, 48000 Hz, 5.1(side), s16, 4608 kb/s
  265. Metadata:
  266. encoder : Lavc58.93.100 pcm_s16le
  267. video:0kB audio:3776040kB subtitle:0kB other streams:0kB global headers:0kB muxing overhead: unknown
  268. [Parsed_volumedetect_0 @ 0000016a1f10a000] n_samples: 1933332480
  269. [Parsed_volumedetect_0 @ 0000016a1f10a000] mean_volume: -38.1 dB
  270. [Parsed_volumedetect_0 @ 0000016a1f10a000] max_volume: -1.5 dB
  271. [Parsed_volumedetect_0 @ 0000016a1f10a000] histogram_1db: 16
  272. [Parsed_volumedetect_0 @ 0000016a1f10a000] histogram_2db: 229
  273. [Parsed_volumedetect_0 @ 0000016a1f10a000] histogram_3db: 690
  274. [Parsed_volumedetect_0 @ 0000016a1f10a000] histogram_4db: 1829
  275. [Parsed_volumedetect_0 @ 0000016a1f10a000] histogram_5db: 4080
  276. [Parsed_volumedetect_0 @ 0000016a1f10a000] histogram_6db: 8080
  277. [Parsed_volumedetect_0 @ 0000016a1f10a000] histogram_7db: 13154
  278. [Parsed_volumedetect_0 @ 0000016a1f10a000] histogram_8db: 20744
  279. [Parsed_volumedetect_0 @ 0000016a1f10a000] histogram_9db: 32268
  280. [Parsed_volumedetect_0 @ 0000016a1f10a000] histogram_10db: 48350
  281. [Parsed_volumedetect_0 @ 0000016a1f10a000] histogram_11db: 73351
  282. [Parsed_volumedetect_0 @ 0000016a1f10a000] histogram_12db: 108317
  283. [Parsed_volumedetect_0 @ 0000016a1f10a000] histogram_13db: 159655
  284. [Parsed_volumedetect_0 @ 0000016a1f10a000] histogram_14db: 239554
  285. [Parsed_volumedetect_0 @ 0000016a1f10a000] histogram_15db: 358312
  286. [Parsed_volumedetect_0 @ 0000016a1f10a000] histogram_16db: 511514
  287. [Parsed_volumedetect_0 @ 0000016a1f10a000] histogram_17db: 708069
  288.  
  289. Start: 9:43:41 PM
  290. End: 9:44:52 PM
  291. Duration: 00:01:10
  292.  
  293. ----------------------- Convert DTSHD to FLAC 1 -----------------------
  294.  
  295. ffmpeg N-98276-g1d5d8a30b4-g842bc312ad-gcc10.1.0 Patman
  296.  
  297. C:\Aps\StaxRip-x64-2.1.3.7-beta\Apps\Encoders\ffmpeg\ffmpeg.exe -i "C:\Movies\MovieNameGoesHere_temp\MovieNameGoesHere ID1 English {English}.dtshd" -af volume=1.5dB -y -hide_banner -ac 6 "C:\Movies\MovieNameGoesHere_temp\MovieNameGoesHere ID1 English {English}.flac"
  298.  
  299. Input #0, dts, from 'C:\Movies\MovieNameGoesHere_temp\MovieNameGoesHere ID1 English {English}.dtshd':
  300. Duration: N/A, start: 0.000000, bitrate: N/A
  301. Stream #0:0: Audio: dts (DTS-HD MA), 48000 Hz, 5.1(side), s32p (24 bit)
  302. Stream mapping:
  303. Stream #0:0 -> #0:0 (dts (dca) -> flac (native))
  304. Press [q] to stop, [?] for help
  305. Output #0, flac, to 'C:\Movies\MovieNameGoesHere_temp\MovieNameGoesHere ID1 English {English}.flac':
  306. Metadata:
  307. encoder : Lavf58.47.100
  308. WAVEFORMATEXTENSIBLE_CHANNEL_MASK: 0x3f
  309. Stream #0:0: Audio: flac, 48000 Hz, 5.1, s32 (24 bit), 128 kb/s
  310. Metadata:
  311. encoder : Lavc58.93.100 flac
  312. video:0kB audio:2837581kB subtitle:0kB other streams:0kB global headers:0kB muxing overhead: 0.000287%
  313.  
  314. Start: 9:44:52 PM
  315. End: 9:46:37 PM
  316. Duration: 00:01:45
  317.  
  318. General
  319. Complete name : C:\Movies\MovieNameGoesHere_temp\MovieNameGoesHere ID1 English {English}.flac
  320. Format : FLAC
  321. Format/Info : Free Lossless Audio Codec
  322. File size : 2.71 GiB
  323. Duration : 1 h 51 min
  324. Overall bit rate mode : Variable
  325. Overall bit rate : 3 463 kb/s
  326. Writing application : Lavf58.47.100
  327.  
  328. Audio
  329. Format : FLAC
  330. Format/Info : Free Lossless Audio Codec
  331. Duration : 1 h 51 min
  332. Bit rate mode : Variable
  333. Bit rate : 3 463 kb/s
  334. Channel(s) : 6 channels
  335. Channel layout : L R C LFE Lb Rb
  336. Sampling rate : 48.0 kHz
  337. Bit depth : 24 bits
  338. Compression mode : Lossless
  339. Stream size : 2.71 GiB (100%)
  340. Writing library : Lavf58.47.100
  341.  
  342. -------------------------- Audio encoding 1 --------------------------
  343.  
  344. qaac 2.69
  345.  
  346. C:\Aps\StaxRip-x64-2.1.3.7-beta\Apps\Audio\qaac\qaac64.exe --tvbr 0 "C:\Movies\MovieNameGoesHere_temp\MovieNameGoesHere ID1 English {English}.flac" -o "C:\Movies\MovieNameGoesHere_temp\MovieNameGoesHere ID1 English {English}_a1.m4a"
  347.  
  348. qaac 2.69, CoreAudioToolbox 7.10.9.0
  349. MovieNameGoesHere ID1 English {English}_a1.m4a
  350. AAC-LC Encoder, TVBR q0, Quality 96
  351. 322222080/322222080 samples processed in 2:50.375
  352. Overall bitrate: 134.409kbps
  353. Optimizing...61%
  354. Optimizing...done
  355.  
  356. Start: 9:46:37 PM
  357. End: 9:49:28 PM
  358. Duration: 00:02:50
  359.  
  360. General
  361. Complete name : C:\Movies\MovieNameGoesHere_temp\MovieNameGoesHere ID1 English {English}_a1.m4a
  362. Format : MPEG-4
  363. Format profile : Apple audio with iTunes info
  364. Codec ID : M4A (M4A /mp42/isom)
  365. File size : 109 MiB
  366. Duration : 1 h 51 min
  367. Overall bit rate mode : Variable
  368. Overall bit rate : 136 kb/s
  369. Encoded date : UTC 2020-09-22 04:46:38
  370. Tagged date : UTC 2020-09-22 04:49:28
  371. Writing application : qaac 2.69, CoreAudioToolbox 7.10.9.0, AAC-LC Encoder, TVBR q0, Quality 96
  372. Encoding Params : (Binary)
  373.  
  374. Audio
  375. ID : 1
  376. Format : AAC LC
  377. Format/Info : Advanced Audio Codec Low Complexity
  378. Codec ID : mp4a-40-2
  379. Duration : 1 h 51 min
  380. Bit rate mode : Variable
  381. Bit rate : 132 kb/s
  382. Maximum bit rate : 164 kb/s
  383. Channel(s) : 6 channels
  384. Channel layout : C L R Ls Rs LFE
  385. Sampling rate : 48.0 kHz
  386. Frame rate : 46.875 FPS (1024 SPF)
  387. Compression mode : Lossy
  388. Stream size : 108 MiB (99%)
  389. Encoded date : UTC 2020-09-22 04:46:38
  390. Tagged date : UTC 2020-09-22 04:49:28
  391.  
  392. -------------------- Video encoding pass 1 chunk 2 --------------------
  393.  
  394. x265 M-3.4+6-g73f96ff39-gcc11.0.0 Patman
  395.  
  396. C:\Aps\StaxRip-x64-2.1.3.7-beta\Apps\Support\avs2pipemod\avs2pipemod64.exe -dll=C:\Aps\StaxRip-x64-2.1.3.7-beta\Apps\FrameServer\AviSynth\AviSynth.dll -trim=80464,160928 -y4mp C:\Movies\MovieNameGoesHere_temp\MovieNameGoesHere.avs | C:\Aps\StaxRip-x64-2.1.3.7-beta\Apps\Encoders\x265\x265.exe --pass 1 --bitrate 2750 --preset slow --profile main10 --output-depth 10 --refine-mv 1 --aq-mode 3 --qcomp 0.75 --aq-motion --bframes 8 --rc-lookahead 50 --colorprim bt709 --colormatrix bt709 --transfer bt709 --range limited --multi-pass-opt-rps --selective-sao 0 --frames 80465 --y4m --stats C:\Movies\MovieNameGoesHere_temp\MovieNameGoesHere_out_chunk2.stats --output NUL -
  397.  
  398. avs2pipemod[info]: invoking Trim ...
  399. avs2pipemod[info]: writing 80465 frames of 24000/1001 fps, 1920x816,
  400. sar 0:0, YUV-420-planar-8bit progressive video.
  401. y4m [info]: 1920x816 fps 24000/1001 i420p8 unknown frame count
  402. raw [info]: output file: NUL
  403. x265 [info]: HEVC encoder version 3.4+6-g73f96ff39
  404. x265 [info]: build info [Windows][GCC 11.0.0][64 bit] 10bit
  405. x265 [info]: using cpu capabilities: MMX2 SSE2Fast LZCNT SSSE3 SSE4.2 AVX FMA3 BMI2 AVX2
  406. x265 [info]: Main 10 profile, Level-4 (Main tier)
  407. x265 [info]: Thread pool created using 24 threads
  408. x265 [info]: Slices : 1
  409. x265 [info]: frame threads / pool features : 4 / wpp(13 rows)
  410. x265 [info]: Coding QT: max CU size, min CU size : 64 / 8
  411. x265 [info]: Residual QT: max TU size, max depth : 32 / 1 inter / 1 intra
  412. x265 [info]: ME / range / subpel / merge : star / 57 / 3 / 3
  413. x265 [info]: Keyframe min / max / scenecut / bias : 23 / 250 / 40 / 5.00
  414. x265 [info]: Lookahead / bframes / badapt : 50 / 8 / 2
  415. x265 [info]: b-pyramid / weightp / weightb : 1 / 1 / 0
  416. x265 [info]: References / ref-limit cu / depth : 4 / on / on
  417. x265 [info]: AQ: mode / str / qg-size / cu-tree : 3 / 1.0 / 32 / 1
  418. x265 [info]: Rate Control / qCompress : ABR-2750 kbps / 0.75
  419. x265 [info]: tools: rect limit-modes rd=4 psy-rd=2.00 rdoq=2 psy-rdoq=1.00
  420. x265 [info]: tools: rskip mode=1 signhide tmvp strong-intra-smoothing lslices=4
  421. x265 [info]: tools: deblock sao stats-write
  422. avs2pipemod[info]: finished, wrote 80465 frames [100%].
  423. avs2pipemod[info]: total elapsed time is 8484.534 sec.
  424. x265 [info]: frame I: 629, Avg QP:17.99 kb/s: 12108.69
  425. x265 [info]: frame P: 18470, Avg QP:19.33 kb/s: 6052.05
  426. x265 [info]: frame B: 61366, Avg QP:24.00 kb/s: 1649.33
  427. x265 [info]: Weighted P-Frames: Y:7.3% UV:5.0%
  428. x265 [info]: consecutive B-frames: 4.6% 2.4% 4.8% 60.6% 13.6% 11.9% 1.4% 0.5% 0.3%
  429. encoded 80465 frames in 8485.96s (9.48 fps), 2741.70 kb/s, Avg QP:22.88
  430.  
  431. Start: 9:49:28 PM
  432. End: 12:10:55 AM
  433. Duration: 02:21:26
  434.  
  435. ------------------------ Video encoding pass 1 ------------------------
  436.  
  437. x265 M-3.4+6-g73f96ff39-gcc11.0.0 Patman
  438.  
  439. C:\Aps\StaxRip-x64-2.1.3.7-beta\Apps\Support\avs2pipemod\avs2pipemod64.exe -dll=C:\Aps\StaxRip-x64-2.1.3.7-beta\Apps\FrameServer\AviSynth\AviSynth.dll -trim=0,80463 -y4mp C:\Movies\MovieNameGoesHere_temp\MovieNameGoesHere.avs | C:\Aps\StaxRip-x64-2.1.3.7-beta\Apps\Encoders\x265\x265.exe --pass 1 --bitrate 2750 --preset slow --profile main10 --output-depth 10 --refine-mv 1 --aq-mode 3 --qcomp 0.75 --aq-motion --bframes 8 --rc-lookahead 50 --colorprim bt709 --colormatrix bt709 --transfer bt709 --range limited --multi-pass-opt-rps --selective-sao 0 --frames 80464 --y4m --stats C:\Movies\MovieNameGoesHere_temp\MovieNameGoesHere_out.stats --output NUL -
  440.  
  441. avs2pipemod[info]: invoking Trim ...
  442. avs2pipemod[info]: writing 80464 frames of 24000/1001 fps, 1920x816,
  443. sar 0:0, YUV-420-planar-8bit progressive video.
  444. y4m [info]: 1920x816 fps 24000/1001 i420p8 unknown frame count
  445. raw [info]: output file: NUL
  446. x265 [info]: HEVC encoder version 3.4+6-g73f96ff39
  447. x265 [info]: build info [Windows][GCC 11.0.0][64 bit] 10bit
  448. x265 [info]: using cpu capabilities: MMX2 SSE2Fast LZCNT SSSE3 SSE4.2 AVX FMA3 BMI2 AVX2
  449. x265 [info]: Main 10 profile, Level-4 (Main tier)
  450. x265 [info]: Thread pool created using 24 threads
  451. x265 [info]: Slices : 1
  452. x265 [info]: frame threads / pool features : 4 / wpp(13 rows)
  453. x265 [info]: Coding QT: max CU size, min CU size : 64 / 8
  454. x265 [info]: Residual QT: max TU size, max depth : 32 / 1 inter / 1 intra
  455. x265 [info]: ME / range / subpel / merge : star / 57 / 3 / 3
  456. x265 [info]: Keyframe min / max / scenecut / bias : 23 / 250 / 40 / 5.00
  457. x265 [info]: Lookahead / bframes / badapt : 50 / 8 / 2
  458. x265 [info]: b-pyramid / weightp / weightb : 1 / 1 / 0
  459. x265 [info]: References / ref-limit cu / depth : 4 / on / on
  460. x265 [info]: AQ: mode / str / qg-size / cu-tree : 3 / 1.0 / 32 / 1
  461. x265 [info]: Rate Control / qCompress : ABR-2750 kbps / 0.75
  462. x265 [info]: tools: rect limit-modes rd=4 psy-rd=2.00 rdoq=2 psy-rdoq=1.00
  463. x265 [info]: tools: rskip mode=1 signhide tmvp strong-intra-smoothing lslices=4
  464. x265 [info]: tools: deblock sao stats-write
  465. avs2pipemod[info]: finished, wrote 80464 frames [100%].
  466. avs2pipemod[info]: total elapsed time is 8941.663 sec.
  467. x265 [info]: frame I: 589, Avg QP:18.26 kb/s: 11835.82
  468. x265 [info]: frame P: 18455, Avg QP:19.64 kb/s: 6107.41
  469. x265 [info]: frame B: 61420, Avg QP:23.95 kb/s: 1652.53
  470. x265 [info]: Weighted P-Frames: Y:6.8% UV:5.1%
  471. x265 [info]: consecutive B-frames: 4.4% 2.0% 4.2% 62.0% 13.4% 12.2% 1.1% 0.5% 0.2%
  472. encoded 80464 frames in 8946.52s (8.99 fps), 2748.83 kb/s, Avg QP:22.92
  473.  
  474. Start: 9:43:41 PM
  475. End: 12:12:50 AM
  476. Duration: 02:29:08
  477.  
  478. -------------------- Video encoding pass 2 chunk 2 --------------------
  479.  
  480. x265 M-3.4+6-g73f96ff39-gcc11.0.0 Patman
  481.  
  482. C:\Aps\StaxRip-x64-2.1.3.7-beta\Apps\Support\avs2pipemod\avs2pipemod64.exe -dll=C:\Aps\StaxRip-x64-2.1.3.7-beta\Apps\FrameServer\AviSynth\AviSynth.dll -trim=80464,160928 -y4mp C:\Movies\MovieNameGoesHere_temp\MovieNameGoesHere.avs | C:\Aps\StaxRip-x64-2.1.3.7-beta\Apps\Encoders\x265\x265.exe --pass 2 --bitrate 2750 --preset slow --profile main10 --output-depth 10 --refine-mv 1 --aq-mode 3 --qcomp 0.75 --aq-motion --bframes 8 --rc-lookahead 50 --colorprim bt709 --colormatrix bt709 --transfer bt709 --range limited --multi-pass-opt-rps --selective-sao 0 --frames 80465 --y4m --stats C:\Movies\MovieNameGoesHere_temp\MovieNameGoesHere_out_chunk2.stats --output C:\Movies\MovieNameGoesHere_temp\MovieNameGoesHere_out_chunk2.hevc -
  483.  
  484. avs2pipemod[info]: invoking Trim ...
  485. avs2pipemod[info]: writing 80465 frames of 24000/1001 fps, 1920x816,
  486. sar 0:0, YUV-420-planar-8bit progressive video.
  487. y4m [info]: 1920x816 fps 24000/1001 i420p8 unknown frame count
  488. raw [info]: output file: C:\Movies\MovieNameGoesHere_temp\MovieNameGoesHere_out_chunk2.hevc
  489. x265 [info]: HEVC encoder version 3.4+6-g73f96ff39
  490. x265 [info]: build info [Windows][GCC 11.0.0][64 bit] 10bit
  491. x265 [info]: using cpu capabilities: MMX2 SSE2Fast LZCNT SSSE3 SSE4.2 AVX FMA3 BMI2 AVX2
  492. x265 [info]: Main 10 profile, Level-4 (Main tier)
  493. x265 [info]: Thread pool created using 24 threads
  494. x265 [info]: Slices : 1
  495. x265 [info]: frame threads / pool features : 4 / wpp(13 rows)
  496. x265 [info]: Coding QT: max CU size, min CU size : 64 / 8
  497. x265 [info]: Residual QT: max TU size, max depth : 32 / 1 inter / 1 intra
  498. x265 [info]: ME / range / subpel / merge : star / 57 / 3 / 3
  499. x265 [info]: Keyframe min / max / scenecut / bias : 23 / 250 / 40 / 5.00
  500. x265 [info]: Lookahead / bframes / badapt : 50 / 8 / 2
  501. x265 [info]: b-pyramid / weightp / weightb : 1 / 1 / 0
  502. x265 [info]: References / ref-limit cu / depth : 4 / on / on
  503. x265 [info]: AQ: mode / str / qg-size / cu-tree : 3 / 1.0 / 32 / 1
  504. x265 [info]: Rate Control / qCompress : ABR-2750 kbps / 0.75
  505. x265 [info]: tools: rect limit-modes rd=4 psy-rd=2.00 rdoq=2 psy-rdoq=1.00
  506. x265 [info]: tools: rskip mode=1 signhide tmvp strong-intra-smoothing lslices=4
  507. x265 [info]: tools: deblock sao stats-read
  508. avs2pipemod[info]: finished, wrote 80465 frames [100%].
  509. avs2pipemod[info]: total elapsed time is 7155.328 sec.
  510. x265 [info]: frame I: 629, Avg QP:16.84 kb/s: 13915.51
  511. x265 [info]: frame P: 18470, Avg QP:19.51 kb/s: 5816.20
  512. x265 [info]: frame B: 61366, Avg QP:24.28 kb/s: 1712.61
  513. x265 [info]: Weighted P-Frames: Y:6.9% UV:4.8%
  514. x265 [info]: consecutive B-frames: 4.6% 2.4% 4.8% 60.6% 13.6% 11.9% 1.4% 0.5% 0.3%
  515. x265 [info]: RPS in SPS: 70067 frames (87.08%), RPS not in SPS: 10398 frames (12.92%)
  516. encoded 80465 frames in 7153.85s (11.25 fps), 2749.94 kb/s, Avg QP:23.13
  517.  
  518. Start: 12:10:55 AM
  519. End: 2:10:12 AM
  520. Duration: 01:59:17
  521.  
  522. ------------------------ Video encoding pass 2 ------------------------
  523.  
  524. x265 M-3.4+6-g73f96ff39-gcc11.0.0 Patman
  525.  
  526. C:\Aps\StaxRip-x64-2.1.3.7-beta\Apps\Support\avs2pipemod\avs2pipemod64.exe -dll=C:\Aps\StaxRip-x64-2.1.3.7-beta\Apps\FrameServer\AviSynth\AviSynth.dll -trim=0,80463 -y4mp C:\Movies\MovieNameGoesHere_temp\MovieNameGoesHere.avs | C:\Aps\StaxRip-x64-2.1.3.7-beta\Apps\Encoders\x265\x265.exe --pass 2 --bitrate 2750 --preset slow --profile main10 --output-depth 10 --refine-mv 1 --aq-mode 3 --qcomp 0.75 --aq-motion --bframes 8 --rc-lookahead 50 --colorprim bt709 --colormatrix bt709 --transfer bt709 --range limited --multi-pass-opt-rps --selective-sao 0 --frames 80464 --y4m --stats C:\Movies\MovieNameGoesHere_temp\MovieNameGoesHere_out.stats --output C:\Movies\MovieNameGoesHere_temp\MovieNameGoesHere_out.hevc -
  527.  
  528. avs2pipemod[info]: invoking Trim ...
  529. avs2pipemod[info]: writing 80464 frames of 24000/1001 fps, 1920x816,
  530. sar 0:0, YUV-420-planar-8bit progressive video.
  531. y4m [info]: 1920x816 fps 24000/1001 i420p8 unknown frame count
  532. raw [info]: output file: C:\Movies\MovieNameGoesHere_temp\MovieNameGoesHere_out.hevc
  533. x265 [info]: HEVC encoder version 3.4+6-g73f96ff39
  534. x265 [info]: build info [Windows][GCC 11.0.0][64 bit] 10bit
  535. x265 [info]: using cpu capabilities: MMX2 SSE2Fast LZCNT SSSE3 SSE4.2 AVX FMA3 BMI2 AVX2
  536. x265 [info]: Main 10 profile, Level-4 (Main tier)
  537. x265 [info]: Thread pool created using 24 threads
  538. x265 [info]: Slices : 1
  539. x265 [info]: frame threads / pool features : 4 / wpp(13 rows)
  540. x265 [info]: Coding QT: max CU size, min CU size : 64 / 8
  541. x265 [info]: Residual QT: max TU size, max depth : 32 / 1 inter / 1 intra
  542. x265 [info]: ME / range / subpel / merge : star / 57 / 3 / 3
  543. x265 [info]: Keyframe min / max / scenecut / bias : 23 / 250 / 40 / 5.00
  544. x265 [info]: Lookahead / bframes / badapt : 50 / 8 / 2
  545. x265 [info]: b-pyramid / weightp / weightb : 1 / 1 / 0
  546. x265 [info]: References / ref-limit cu / depth : 4 / on / on
  547. x265 [info]: AQ: mode / str / qg-size / cu-tree : 3 / 1.0 / 32 / 1
  548. x265 [info]: Rate Control / qCompress : ABR-2750 kbps / 0.75
  549. x265 [info]: tools: rect limit-modes rd=4 psy-rd=2.00 rdoq=2 psy-rdoq=1.00
  550. x265 [info]: tools: rskip mode=1 signhide tmvp strong-intra-smoothing lslices=4
  551. x265 [info]: tools: deblock sao stats-read
  552. avs2pipemod[info]: finished, wrote 80464 frames [100%].
  553. avs2pipemod[info]: total elapsed time is 7667.635 sec.
  554. x265 [info]: frame I: 589, Avg QP:16.93 kb/s: 13681.63
  555. x265 [info]: frame P: 18455, Avg QP:19.76 kb/s: 5943.00
  556. x265 [info]: frame B: 61420, Avg QP:24.23 kb/s: 1685.47
  557. x265 [info]: Weighted P-Frames: Y:6.4% UV:4.8%
  558. x265 [info]: consecutive B-frames: 4.4% 2.0% 4.2% 62.0% 13.4% 12.2% 1.1% 0.5% 0.2%
  559. x265 [info]: RPS in SPS: 71676 frames (89.08%), RPS not in SPS: 8788 frames (10.92%)
  560. encoded 80464 frames in 7669.53s (10.49 fps), 2749.77 kb/s, Avg QP:23.15
  561.  
  562. Start: 12:12:50 AM
  563. End: 2:20:42 AM
  564. Duration: 02:07:52
  565.  
  566. ------------------------------- Muxing -------------------------------
  567.  
  568. mkvmerge 47
  569.  
  570. C:\Aps\StaxRip-x64-2.1.3.7-beta\Apps\Support\MKVToolNix\mkvmerge.exe -o C:\Movies\Staxriptemp\MovieNameGoesHere.mkv C:\Movies\MovieNameGoesHere_temp\MovieNameGoesHere_out.hevc + C:\Movies\MovieNameGoesHere_temp\MovieNameGoesHere_out_chunk2.hevc --no-chapters --audio-tracks 0 --language 0:eng --default-track 0:0 --forced-track 0:0 "C:\Movies\MovieNameGoesHere_temp\MovieNameGoesHere ID1 English {English}_a1.m4a" --forced-track 0:0 --default-track 0:0 --language 0:eng --track-name "0:English (SDH)" "C:\Movies\MovieNameGoesHere_temp\MovieNameGoesHere ID3 English {English (SDH)}.sup" --chapters C:\Movies\MovieNameGoesHere_temp\MovieNameGoesHere_chapters.xml --ui-language en
  571.  
  572. mkvmerge v47.0.0 ('Black Flag') 64-bit
  573. 'C:\Movies\MovieNameGoesHere_temp\MovieNameGoesHere_out.hevc': Using the demultiplexer for the format 'HEVC/H.265'.
  574. 'C:\Movies\MovieNameGoesHere_temp\MovieNameGoesHere_out_chunk2.hevc': Using the demultiplexer for the format 'HEVC/H.265'.
  575. 'C:\Movies\MovieNameGoesHere_temp\MovieNameGoesHere ID1 English {English}_a1.m4a': Using the demultiplexer for the format 'QuickTime/MP4'.
  576. 'C:\Movies\MovieNameGoesHere_temp\MovieNameGoesHere ID3 English {English (SDH)}.sup': Using the demultiplexer for the format 'PGSSUP'.
  577. 'C:\Movies\MovieNameGoesHere_temp\MovieNameGoesHere_out.hevc' track 0: Using the output module for the format 'HEVC/H.265 (unframed)'.
  578. 'C:\Movies\MovieNameGoesHere_temp\MovieNameGoesHere_out_chunk2.hevc' track 0: Using the output module for the format 'HEVC/H.265 (unframed)'.
  579. 'C:\Movies\MovieNameGoesHere_temp\MovieNameGoesHere ID1 English {English}_a1.m4a' track 0: Using the output module for the format 'AAC'.
  580. 'C:\Movies\MovieNameGoesHere_temp\MovieNameGoesHere ID3 English {English (SDH)}.sup' track 0: Using the output module for the format 'HDMV PGS'.
  581. No append mapping was given for the file no. 1 ('C:\Movies\MovieNameGoesHere_temp\MovieNameGoesHere_out_chunk2.hevc'). A default mapping of 1:0:0:0 will be used instead. Please keep that in mind if mkvmerge aborts with an error message regarding invalid '--append-to' options.
  582. The file 'C:\Movies\Staxriptemp\MovieNameGoesHere.mkv' has been opened for writing.
  583. Appending track 0 from file no. 1 ('C:\Movies\MovieNameGoesHere_temp\MovieNameGoesHere_out_chunk2.hevc') to track 0 from file no. 0 ('C:\Movies\MovieNameGoesHere_temp\MovieNameGoesHere_out.hevc').
  584. The cue entries (the index) are being written...
  585. Multiplexing took 11 seconds.
  586.  
  587. Start: 2:20:42 AM
  588. End: 2:20:54 AM
  589. Duration: 00:00:11
  590.  
  591. General
  592. Complete name : C:\Movies\Staxriptemp\MovieNameGoesHere.mkv
  593. Format : Matroska
  594. Format version : Version 4
  595. File size : 2.26 GiB
  596. Duration : 1 h 51 min
  597. Overall bit rate : 2 892 kb/s
  598. Encoded date : UTC 2020-09-22 09:20:43
  599. Writing application : mkvmerge v47.0.0 ('Black Flag') 64-bit
  600. Writing library : libebml v1.3.10 + libmatroska v1.5.2
  601.  
  602. Video
  603. ID : 1
  604. Format : HEVC
  605. Format/Info : High Efficiency Video Coding
  606. Format profile : Main 10@L4@Main
  607. Codec ID : V_MPEGH/ISO/HEVC
  608. Duration : 1 h 51 min
  609. Bit rate : 2 751 kb/s
  610. Width : 1 920 pixels
  611. Height : 816 pixels
  612. Display aspect ratio : 2.35:1
  613. Frame rate mode : Constant
  614. Frame rate : 23.976 (24000/1001) FPS
  615. Color space : YUV
  616. Chroma subsampling : 4:2:0
  617. Bit depth : 10 bits
  618. Bits/(Pixel*Frame) : 0.073
  619. Stream size : 2.15 GiB (95%)
  620. Writing library : x265 3.4+6-g73f96ff39:[Windows][GCC 11.0.0][64 bit] 10bit
  621. Default : Yes
  622. Forced : No
  623. Color range : Limited
  624. Color primaries : BT.709
  625. Transfer characteristics : BT.709
  626. Matrix coefficients : BT.709
  627.  
  628. Audio
  629. ID : 2
  630. Format : AAC LC
  631. Format/Info : Advanced Audio Codec Low Complexity
  632. Codec ID : A_AAC-2
  633. Duration : 1 h 51 min
  634. Bit rate : 132 kb/s
  635. Channel(s) : 6 channels
  636. Channel layout : C L R Ls Rs LFE
  637. Sampling rate : 48.0 kHz
  638. Frame rate : 46.875 FPS (1024 SPF)
  639. Compression mode : Lossy
  640. Delay relative to video : 20 ms
  641. Stream size : 108 MiB (5%)
  642. Language : English
  643. Default : No
  644. Forced : No
  645.  
  646. Text
  647. ID : 3
  648. Format : PGS
  649. Muxing mode : zlib
  650. Codec ID : S_HDMV/PGS
  651. Codec ID/Info : Picture based subtitle format used on BDs/HD-DVDs
  652. Duration : 1 h 51 min
  653. Bit rate : 23.8 kb/s
  654. Count of elements : 2881
  655. Stream size : 19.1 MiB (1%)
  656. Title : English (SDH)
  657. Language : English
  658. Default : No
  659. Forced : No
  660.  
  661. Menu
  662. 00 : 00:00.000 : :Chapter 01
  663. 00 : 09:41.164 : :Chapter 02
  664. 00 : 13:48.411 : :Chapter 03
  665. 00 : 21:20.780 : :Chapter 04
  666. 00 : 29:40.153 : :Chapter 05
  667. 00 : 42:27.045 : :Chapter 06
  668. 00 : 56:08.782 : :Chapter 07
  669. 01 : 06:30.820 : :Chapter 08
  670. 01 : 13:13.723 : :Chapter 09
  671. 01 : 29:40.125 : :Chapter 10
  672. 01 : 37:29.260 : :Chapter 11
  673. 01 : 47:43.666 : :Chapter 12
  674.  
  675. ---------------------------- Job Complete ----------------------------
  676.  
  677. Start: 9:43:41 PM
  678. End: 2:20:54 AM
  679. Duration: 04:37:12
  680.  
  681.  
Advertisement
Add Comment
Please, Sign In to add comment
Advertisement