SHARE
TWEET

Untitled

a guest Mar 29th, 2012 18 Never
Not a member of Pastebin yet? Sign Up, it unlocks many cool features!
  1. General
  2. Format                                   : MPEG-4
  3. Format profile                           : Base Media
  4. Codec ID                                 : isom
  5. File size                                : 77.3 MiB
  6. Duration                                 : 22mn 20s
  7. Overall bit rate                         : 484 Kbps
  8. Writing application                      : Lavf54.0.100
  9.  
  10. Video
  11. ID                                       : 1
  12. Format                                   : AVC
  13. Format/Info                              : Advanced Video Codec
  14. Format profile                           : High@L3.1
  15. Format settings, CABAC                   : Yes
  16. Format settings, ReFrames                : 10 frames
  17. Codec ID                                 : avc1
  18. Codec ID/Info                            : Advanced Video Coding
  19. Duration                                 : 22mn 20s
  20. Bit rate                                 : 350 Kbps
  21. Width                                    : 854 pixels
  22. Height                                   : 480 pixels
  23. Display aspect ratio                     : 16:9
  24. Original display aspect ratio            : 16:9
  25. Frame rate mode                          : Constant
  26. Frame rate                               : 23.976 fps
  27. Color space                              : YUV
  28. Chroma subsampling                       : 4:2:0
  29. Bit depth                                : 8 bits
  30. Scan type                                : Progressive
  31. Bits/(Pixel*Frame)                       : 0.036
  32. Stream size                              : 56.0 MiB (72%)
  33. Writing library                          : x264 core 120 r2146 bcd41db
  34. Encoding settings                        : cabac=1 / ref=10 / deblock=1:1:1 / analyse=0x3:0x113 / me=umh / subme=8 / psy=1 / psy_rd=0.40:0.00 / mixed_ref=1 / me_range=16 / chroma_me=1 / trellis=1 / 8x8dct=1 / cqm=0 / deadzone=21,11 / fast_pskip=1 / chroma_qp_offset=-2 / threads=8 / sliced_threads=0 / nr=0 / decimate=1 / interlaced=0 / bluray_compat=0 / constrained_intra=0 / bframes=5 / b_pyramid=2 / b_adapt=2 / b_bias=0 / direct=3 / weightb=1 / open_gop=0 / weightp=2 / keyint=250 / keyint_min=23 / scenecut=40 / intra_refresh=0 / rc_lookahead=50 / rc=crf / mbtree=1 / crf=21.0 / qcomp=0.60 / qpmin=0 / qpmax=69 / qpstep=4 / ip_ratio=1.40 / aq=1:0.60
  35.  
  36. Audio
  37. ID                                       : 2
  38. Format                                   : AAC
  39. Format/Info                              : Advanced Audio Codec
  40. Format profile                           : LC
  41. Codec ID                                 : 40
  42. Duration                                 : 22mn 19s
  43. Bit rate mode                            : Constant
  44. Bit rate                                 : 128 Kbps
  45. Channel(s)                               : 2 channels
  46. Channel positions                        : Front: L R
  47. Sampling rate                            : 48.0 KHz
  48. Compression mode                         : Lossy
  49. Delay relative to video                  : -2s 2ms
  50. Stream size                              : 20.5 MiB (26%)
RAW Paste Data
We use cookies for various purposes including analytics. By continuing to use Pastebin, you agree to our use of cookies as described in the Cookies Policy. OK, I Understand
 
Top