Guest User

Untitled

a guest
Dec 22nd, 2020
14
Never
Not a member of Pastebin yet? Sign Up, it unlocks many cool features!
  1. Общее
  2. Уникальный идентификатор : 253953528031402464671936347235721284196 (0xBF0DABA01C59F99EBA388D15BEB20A64)
  3. Полное имя : D:\Кинозал\Demon.Vnutri.2016.4xRus.Eng.BDRip.1080p.-HELLYWOOD.mkv
  4. Формат : Matroska
  5. Версия формата : Version 4 / Version 2
  6. Размер файла : 6,49 Гбайт
  7. Продолжительность : 1 ч. 26 м.
  8. Общий поток : 10,7 Мбит/сек
  9. Название фильма : The Autopsy of Jane Doe (2016)
  10. Дата кодирования : UTC 2018-01-31 17:36:17
  11. Программа кодирования : mkvmerge v5.9.0 ('On The Loose') built on Dec 15 2012 16:39:58
  12. Библиотека кодирования : libebml v1.3.0 + libmatroska v1.4.0
  13.  
  14. Видео
  15. Идентификатор : 1
  16. Формат : AVC
  17. Формат/Информация : Advanced Video Codec
  18. Профиль формата : High@L4.1
  19. Настройки формата : CABAC / 4 Ref Frames
  20. Параметр CABAC формата : Да
  21. Параметр RefFrames формата : 4 кадра
  22. Идентификатор кодека : V_MPEG4/ISO/AVC
  23. Продолжительность : 1 ч. 26 м.
  24. Битрейт : 8260 Кбит/сек
  25. Ширина : 1920 пикселей
  26. Высота : 1080 пикселей
  27. Соотношение сторон : 16:9
  28. Режим частоты кадров : Постоянный
  29. Частота кадров : 24,000 кадра/сек
  30. Цветовое пространство : YUV
  31. Субдискретизация насыщенности : 4:2:0
  32. Битовая глубина : 8 бит
  33. Тип развёртки : Прогрессивная
  34. Бит/(Пиксели*Кадры) : 0.166
  35. Размер потока : 4,85 Гбайт (75%)
  36. Заголовок : potroks
  37. Библиотека кодирования : x264 core 152 r2851M ba24899
  38. Настройки программы : cabac=1 / ref=4 / deblock=1:-2:-2 / analyse=0x3:0x112 / me=umh / subme=11 / psy=1 / psy_rd=0.98:0.02 / mixed_ref=1 / me_range=48 / chroma_me=1 / trellis=2 / 8x8dct=1 / cqm=0 / deadzone=21,11 / fast_pskip=0 / chroma_qp_offset=-3 / threads=9 / lookahead_threads=2 / sliced_threads=0 / nr=0 / decimate=0 / interlaced=0 / bluray_compat=0 / constrained_intra=0 / bframes=11 / b_pyramid=2 / b_adapt=2 / b_bias=0 / direct=3 / weightb=1 / open_gop=0 / weightp=2 / keyint=240 / keyint_min=23 / scenecut=40 / intra_refresh=0 / rc_lookahead=0 / rc=2pass / mbtree=0 / bitrate=8260 / ratetol=1.0 / qcomp=0.70 / qpmin=0 / qpmax=69 / qpstep=4 / cplxblur=20.0 / qblur=0.5 / vbv_maxrate=50000 / vbv_bufsize=35714 / nal_hrd=none / filler=0 / ip_ratio=1.40 / pb_ratio=1.30 / aq=1:0.70
  39. Язык : English
  40. Default : Да
  41. Forced : Нет
  42.  
  43. Аудио #1
  44. Идентификатор : 2
  45. Формат : AC-3
  46. Формат/Информация : Audio Coding 3
  47. Параметр Endianness формата : Big
  48. Идентификатор кодека : A_AC3
  49. Продолжительность : 1 ч. 26 м.
  50. Вид битрейта : Постоянный
  51. Битрейт : 640 Кбит/сек
  52. Каналы : 6 каналов
  53. Расположение каналов : Front: L C R, Side: L R, LFE
  54. Частота : 48,0 КГц
  55. Частота кадров : 31,250 кадров/сек (1536 SPF)
  56. Битовая глубина : 16 бит
  57. Метод сжатия : С потерями
  58. Размер потока : 396 Мбайт (6%)
  59. Заголовок : MVO | DD 5.1 @ 640 kbps - Blu-ray RUS
  60. Язык : Russian
  61. ServiceKind/String : Complete Main
  62. Default : Да
  63. Forced : Нет
  64.  
  65. Аудио #2
  66. Идентификатор : 3
  67. Формат : AC-3
  68. Формат/Информация : Audio Coding 3
  69. Параметр Endianness формата : Big
  70. Идентификатор кодека : A_AC3
  71. Продолжительность : 1 ч. 26 м.
  72. Вид битрейта : Постоянный
  73. Битрейт : 384 Кбит/сек
  74. Каналы : 6 каналов
  75. Расположение каналов : Front: L C R, Side: L R, LFE
  76. Частота : 48,0 КГц
  77. Частота кадров : 31,250 кадров/сек (1536 SPF)
  78. Битовая глубина : 16 бит
  79. Метод сжатия : С потерями
  80. Размер потока : 237 Мбайт (4%)
  81. Заголовок : MVO | DD 5.1 @ 384 kbps - AlexFilm
  82. Язык : Russian
  83. ServiceKind/String : Complete Main
  84. Default : Нет
  85. Forced : Нет
  86.  
  87. Аудио #3
  88. Идентификатор : 4
  89. Формат : AC-3
  90. Формат/Информация : Audio Coding 3
  91. Параметр Endianness формата : Big
  92. Идентификатор кодека : A_AC3
  93. Продолжительность : 1 ч. 26 м.
  94. Вид битрейта : Постоянный
  95. Битрейт : 384 Кбит/сек
  96. Каналы : 6 каналов
  97. Расположение каналов : Front: L C R, Side: L R, LFE
  98. Частота : 48,0 КГц
  99. Частота кадров : 31,250 кадров/сек (1536 SPF)
  100. Битовая глубина : 16 бит
  101. Метод сжатия : С потерями
  102. Размер потока : 237 Мбайт (4%)
  103. Заголовок : MVO | DD 5.1 @ 384 kbps - Black Street Records
  104. Язык : Russian
  105. ServiceKind/String : Complete Main
  106. Default : Нет
  107. Forced : Нет
  108.  
  109. Аудио #4
  110. Идентификатор : 5
  111. Формат : AC-3
  112. Формат/Информация : Audio Coding 3
  113. Параметр Endianness формата : Big
  114. Идентификатор кодека : A_AC3
  115. Продолжительность : 1 ч. 26 м.
  116. Вид битрейта : Постоянный
  117. Битрейт : 448 Кбит/сек
  118. Каналы : 6 каналов
  119. Расположение каналов : Front: L C R, Side: L R, LFE
  120. Частота : 48,0 КГц
  121. Частота кадров : 31,250 кадров/сек (1536 SPF)
  122. Битовая глубина : 16 бит
  123. Метод сжатия : С потерями
  124. Размер потока : 277 Мбайт (4%)
  125. Заголовок : VO | DD 5.1 @ 448 kbps - Solod
  126. Язык : Russian
  127. ServiceKind/String : Complete Main
  128. Default : Нет
  129. Forced : Нет
  130.  
  131. Аудио #5
  132. Идентификатор : 6
  133. Формат : AC-3
  134. Формат/Информация : Audio Coding 3
  135. Параметр Endianness формата : Big
  136. Идентификатор кодека : A_AC3
  137. Продолжительность : 1 ч. 26 м.
  138. Вид битрейта : Постоянный
  139. Битрейт : 640 Кбит/сек
  140. Каналы : 6 каналов
  141. Расположение каналов : Front: L C R, Side: L R, LFE
  142. Частота : 48,0 КГц
  143. Частота кадров : 31,250 кадров/сек (1536 SPF)
  144. Битовая глубина : 16 бит
  145. Метод сжатия : С потерями
  146. Размер потока : 396 Мбайт (6%)
  147. Заголовок : Original | DD 5.1 @ 640 kbps
  148. Язык : English
  149. ServiceKind/String : Complete Main
  150. Default : Нет
  151. Forced : Нет
  152.  
  153. Текст #1
  154. Идентификатор : 7
  155. Формат : UTF-8
  156. Идентификатор кодека : S_TEXT/UTF8
  157. Идентификатор кодека/Информация : UTF-8 Plain Text
  158. Язык : Russian
  159. Default : Нет
  160. Forced : Нет
  161.  
  162. Текст #2
  163. Идентификатор : 8
  164. Формат : UTF-8
  165. Идентификатор кодека : S_TEXT/UTF8
  166. Идентификатор кодека/Информация : UTF-8 Plain Text
  167. Заголовок : Full
  168. Язык : English
  169. Default : Нет
  170. Forced : Нет
  171.  
  172. Текст #3
  173. Идентификатор : 9
  174. Формат : UTF-8
  175. Идентификатор кодека : S_TEXT/UTF8
  176. Идентификатор кодека/Информация : UTF-8 Plain Text
  177. Заголовок : SDH-Colored
  178. Язык : English
  179. Default : Нет
  180. Forced : Нет
  181.  
  182. Меню
  183. 00:00:00.000 : en:(01)00:00:00:000
  184. 00:01:29.083 : en:(02)00:01:29:083
  185. 00:09:04.000 : en:(03)00:09:04:000
  186. 00:18:46.333 : en:(04)00:18:46:333
  187. 00:30:27.833 : en:(05)00:30:27:833
  188. 00:40:55.583 : en:(06)00:40:55:583
  189. 00:52:53.666 : en:(07)00:52:53:666
  190. 01:03:25.083 : en:(08)01:03:25:083
  191. 01:12:35.000 : en:(09)01:12:35:000
RAW Paste Data

Adblocker detected! Please consider disabling it...

We've detected AdBlock Plus or some other adblocking software preventing Pastebin.com from fully loading.

We don't have any obnoxious sound, or popup ads, we actively block these annoying types of ads!

Please add Pastebin.com to your ad blocker whitelist or disable your adblocking software.

×