SHARE
TWEET

Untitled

a guest Dec 31st, 2016 73 Never
Not a member of Pastebin yet? Sign Up, it unlocks many cool features!
  1. Общее
  2. Уникальный идентификатор                 : 189773051916481161310214774687092717871 (0x8EC4F5D8579C68D882802D84B9A0392F)
  3. Полное имя                               : F:\Video\Army.of.One.2016.BDREMUX.1080p.ExKinoRay.mkv
  4. Формат                                   : Matroska
  5. Версия формата                           : Version 4 / Version 2
  6. Размер файла                             : 17,0 Гбайт
  7. Продолжительность                        : 1 ч. 32 м.
  8. Режим общего битрейта                    : Переменный
  9. Общий поток                              : 26,3 Мбит/сек
  10. Название фильма                          : Army.of.One.2016 ***селезень***
  11. Дата кодирования                         : UTC 2016-12-31 20:14:13
  12. Программа кодирования                    : mkvmerge v8.3.0 ('Over the Horizon') 64bit
  13. Библиотека кодирования                   : libebml v1.3.1 + libmatroska v1.4.2
  14.  
  15. Видео
  16. Идентификатор                            : 1
  17. Формат                                   : AVC
  18. Формат/Информация                        : Advanced Video Codec
  19. Профиль формата                          : High@L4.1
  20. Параметр CABAC формата                   : Да
  21. Параметр ReFrames формата                : 4 кадра
  22. Параметр GOP формата                     : M=3, N=24
  23. Идентификатор кодека                     : V_MPEG4/ISO/AVC
  24. Продолжительность                        : 1 ч. 32 м.
  25. Вид битрейта                             : Переменный
  26. Битрейт                                  : 22,4 Мбит/сек
  27. Максимальный битрейт                     : 35,0 Мбит/сек
  28. Ширина                                   : 1920 пикселей
  29. Высота                                   : 1080 пикселей
  30. Соотношение сторон                       : 16:9
  31. Режим частоты кадров                     : Постоянный
  32. Частота кадров                           : 23,976 (24000/1001) кадра/сек
  33. Стандарт вещания                         : NTSC
  34. Цветовое пространство                    : YUV
  35. Субдискретизация насыщенности            : 4:2:0
  36. Битовая глубина                          : 8 бит
  37. Тип развёртки                            : Прогрессивная
  38. Бит/(Пиксели*Кадры)                      : 0.450
  39. Размер потока                            : 14,5 Гбайт (85%)
  40. Заголовок                                : Army.of.One.2016 ***селезень***
  41. Язык                                     : English
  42. Default                                  : Да
  43. Forced                                   : Нет
  44. Цветовой диапазон                        : Limited
  45. Основные цвета                           : BT.709
  46. Характеристики трансфера                 : BT.709
  47. Коэффициенты матрицы                     : BT.709
  48.  
  49. Аудио #1
  50. Идентификатор                            : 2
  51. Формат                                   : AC-3
  52. Формат/Информация                        : Audio Coding 3
  53. Расширение режима                        : CM (complete main)
  54. Параметр Endianness формата              : Big
  55. Идентификатор кодека                     : A_AC3
  56. Продолжительность                        : 1 ч. 32 м.
  57. Вид битрейта                             : Постоянный
  58. Битрейт                                  : 384 Кбит/сек
  59. Каналы                                   : 6 каналов
  60. Расположение каналов                     : Front: L C R, Side: L R, LFE
  61. Частота                                  : 48,0 КГц
  62. Частота кадров                           : 31,250 кадров/сек (1536 spf)
  63. Битовая глубина                          : 16 бит
  64. Метод сжатия                             : С потерями
  65. Размер потока                            : 254 Мбайт (1%)
  66. Заголовок                                : iTunes
  67. Язык                                     : Russian
  68. Default                                  : Да
  69. Forced                                   : Нет
  70.  
  71. Аудио #2
  72. Идентификатор                            : 3
  73. Формат                                   : DTS
  74. Формат/Информация                        : Digital Theater Systems
  75. Профиль формата                          : MA / Core
  76. Режим                                    : 16
  77. Параметр Endianness формата              : Big
  78. Идентификатор кодека                     : A_DTS
  79. Продолжительность                        : 1 ч. 32 м.
  80. Вид битрейта                             : Переменный / Постоянный
  81. Битрейт                                  : 3548 Кбит/сек / 1509 Кбит/сек
  82. Каналы                                   : 6 каналов
  83. Расположение каналов                     : Front: L C R, Side: L R, LFE
  84. Частота                                  : 48,0 КГц
  85. Частота кадров                           : 93,750 кадра/сек (512 spf)
  86. Битовая глубина                          : 24 бит
  87. Метод сжатия                             : Без потерь / Lossy
  88. Размер потока                            : 2,30 Гбайт (13%)
  89. Заголовок                                : Original
  90. Язык                                     : English
  91. Default                                  : Нет
  92. Forced                                   : Нет
  93.  
  94. Текст
  95. Идентификатор                            : 4
  96. Формат                                   : UTF-8
  97. Идентификатор кодека                     : S_TEXT/UTF8
  98. Идентификатор кодека/Информация          : UTF-8 Plain Text
  99. Продолжительность                        : 1 ч. 27 м.
  100. Битрейт                                  : 92 бит/сек
  101. Count of elements                        : 1975
  102. Размер потока                            : 59,0 Кбайт (0%)
  103. Заголовок                                : Full
  104. Язык                                     : English
  105. Default                                  : Нет
  106. Forced                                   : Нет
  107.  
  108. Меню
  109. 00:00:00.000                             : en:00:00:00.000
  110. 00:05:22.697                             : en:00:05:22.697
  111. 00:10:24.332                             : en:00:10:24.332
  112. 00:18:19.974                             : en:00:18:19.974
  113. 00:24:16.664                             : en:00:24:16.664
  114. 00:31:13.330                             : en:00:31:13.330
  115. 00:36:37.654                             : en:00:36:37.654
  116. 00:45:30.353                             : en:00:45:30.353
  117. 00:50:30.653                             : en:00:50:30.653
  118. 00:56:58.165                             : en:00:56:58.165
  119. 01:02:09.809                             : en:01:02:09.809
  120. 01:07:41.891                             : en:01:07:41.891
  121. 01:12:15.831                             : en:01:12:15.831
  122. 01:15:46.834                             : en:01:15:46.834
  123. 01:20:55.059                             : en:01:20:55.059
  124. 01:26:06.036                             : en:01:26:06.036
RAW Paste Data
We use cookies for various purposes including analytics. By continuing to use Pastebin, you agree to our use of cookies as described in the Cookies Policy. OK, I Understand
Top