Guest User

Midnght.Run.1988.1080p.Blu-ray.AVC.REMUX.DD.5.1-NghtCaptn

a guest
Jun 16th, 2019
43
Never
Not a member of Pastebin yet? Sign Up, it unlocks many cool features!
  1. General
  2. Unique ID                                : 18444817853752873296584109939378027799 (0xDE057BB570852AD97BBA66B19A6FD17)
  3. Complete name                            : Midnght.Run.1988.1080p.Blu-ray.AVC.REMUX.DD.5.1-NghtCaptn.mkv
  4. Format                                   : Matroska
  5. Format version                           : Version 4
  6. File size                                : 19.1 GiB
  7. Duration                                 : 2 h 6 min
  8. Overall bit rate mode                    : Variable
  9. Overall bit rate                         : 21.6 Mb/s
  10. Movie name                               : Midnght Run 1988 1080p Blu-ray AVC REMUX DD 5.1-NghtCaptn
  11. Encoded date                             : UTC 2018-05-06 06:29:09
  12. Writing application                      : mkvmerge v22.0.0 ('At The End Of The World') 64-bit
  13. Writing library                          : libebml v1.3.5 + libmatroska v1.4.8
  14.  
  15. Video
  16. ID                                       : 1
  17. Format                                   : AVC
  18. Format/Info                              : Advanced Video Codec
  19. Format profile                           : High@L4.1
  20. Format settings                          : CABAC / 4 Ref Frames
  21. Format settings, CABAC                   : Yes
  22. Format settings, Reference frames        : 4 frames
  23. Codec ID                                 : V_MPEG4/ISO/AVC
  24. Duration                                 : 2 h 6 min
  25. Bit rate mode                            : Variable
  26. Bit rate                                 : 21.0 Mb/s
  27. Maximum bit rate                         : 35.0 Mb/s
  28. Width                                    : 1 920 pixels
  29. Height                                   : 1 080 pixels
  30. Display aspect ratio                     : 16:9
  31. Frame rate mode                          : Constant
  32. Frame rate                               : 23.976 (23976/1000) FPS
  33. Original frame rate                      : 23.976 (24000/1001) FPS
  34. Standard                                 : NTSC
  35. Color space                              : YUV
  36. Chroma subsampling                       : 4:2:0
  37. Bit depth                                : 8 bits
  38. Scan type                                : Progressive
  39. Bits/(Pixel*Frame)                       : 0.422
  40. Stream size                              : 18.5 GiB (97%)
  41. Default                                  : Yes
  42. Forced                                   : No
  43. Color range                              : Limited
  44. Color primaries                          : BT.709
  45. Transfer characteristics                 : BT.709
  46. Matrix coefficients                      : BT.709
  47.  
  48. Audio
  49. ID                                       : 2
  50. Format                                   : AC-3
  51. Format/Info                              : Audio Coding 3
  52. Commercial name                          : Dolby Digital
  53. Codec ID                                 : A_AC3
  54. Duration                                 : 2 h 6 min
  55. Bit rate mode                            : Constant
  56. Bit rate                                 : 640 kb/s
  57. Channel(s)                               : 6 channels
  58. Channel layout                           : L R C LFE Ls Rs
  59. Sampling rate                            : 48.0 kHz
  60. Frame rate                               : 31.250 FPS (1536 SPF)
  61. Bit depth                                : 16 bits
  62. Compression mode                         : Lossy
  63. Stream size                              : 578 MiB (3%)
  64. Language                                 : English
  65. Service kind                             : Complete Main
  66. Default                                  : Yes
  67. Forced                                   : No
  68.  
  69. Menu
  70. 00:00:00.000                             : en:Chapter 1
  71. 00:04:40.280                             : en:Chapter 2
  72. 00:15:57.247                             : en:Chapter 3
  73. 00:25:58.682                             : en:Chapter 4
  74. 00:35:09.732                             : en:Chapter 5
  75. 00:48:11.054                             : en:Chapter 6
  76. 01:04:21.482                             : en:Chapter 7
  77. 01:18:17.859                             : en:Chapter 8
  78. 01:31:34.947                             : en:Chapter 9
  79. 01:47:23.562                             : en:Chapter 10
  80. 02:02:09.947                             : en:Chapter 11
RAW Paste Data