daily pastebin goal
32%
SHARE
TWEET

Untitled

Secasa Dec 7th, 2017 1 Never
Not a member of Pastebin yet? Sign Up, it unlocks many cool features!
  1. Format                                   : Matroska
  2. Format version                           : Version 2
  3. File size                                : 11.5 GiB
  4. Duration                                 : 1h 29mn
  5. Overall bit rate                         : 18.4 Mbps
  6. Encoded date                             : UTC 2017-12-06 17:23:54
  7. Writing application                      : mkvmerge v5.3.0 ('I could have danced') built on Feb  9 2012 10:38:07
  8. Writing library                          : libebml v1.2.3 + libmatroska v1.3.0
  9.  
  10. Video
  11. ID                                       : 1
  12. Format                                   : AVC
  13. Format/Info                              : Advanced Video Codec
  14. Format profile                           : High@L4.1
  15. Format settings, CABAC                   : Yes
  16. Format settings, ReFrames                : 4 frames
  17. Codec ID                                 : V_MPEG4/ISO/AVC
  18. Duration                                 : 1h 29mn
  19. Bit rate                                 : 17.0 Mbps
  20. Width                                    : 1 920 pixels
  21. Height                                   : 1 040 pixels
  22. Display aspect ratio                     : 1.85:1
  23. Frame rate mode                          : Constant
  24. Frame rate                               : 23.976 fps
  25. Color space                              : YUV
  26. Chroma subsampling                       : 4:2:0
  27. Bit depth                                : 8 bits
  28. Scan type                                : Progressive
  29. Bits/(Pixel*Frame)                       : 0.355
  30. Stream size                              : 10.6 GiB (92%)
  31. Writing library                          : x264 core 152 r2851+58 429492e t_mod_Custom [8-bit@all X86_64]
  32. Encoding settings                        : cabac=1 / ref=4 / deblock=1:-3:-3 / analyse=0x3:0x113 / me=umh / subme=10 / psy=1 / fade_compensate=0.00 / psy_rd=1.05:0.00 / mixed_ref=1 / me_range=32 / chroma_me=1 / trellis=2 / 8x8dct=1 / cqm=0 / deadzone=21,11 / fast_pskip=0 / chroma_qp_offset=-2 / threads=24 / lookahead_threads=4 / sliced_threads=0 / nr=0 / decimate=0 / interlaced=0 / bluray_compat=0 / constrained_intra=0 / fgo=0 / bframes=7 / b_pyramid=2 / b_adapt=2 / b_bias=0 / direct=3 / weightb=1 / open_gop=0 / weightp=2 / keyint=240 / keyint_min=23 / scenecut=40 / intra_refresh=0 / rc_lookahead=60 / rc=crf / mbtree=0 / crf=15.6000 / qcomp=0.75 / qpmin=0:0:0 / qpmax=69:69:69 / qpstep=4 / vbv_maxrate=62500 / vbv_bufsize=78125 / crf_max=0.0 / nal_hrd=none / filler=0 / ip_ratio=1.30 / pb_ratio=1.20 / aq=3:0.80 / aq-sensitivity=10.00 / aq-factor=1.00:1.00:1.00 / aq2=1:0.70 / aq2-sensitivity=15.00 / aq2-factor=1.00:1.00:1.00 / aq3=1:[0.70:0.70]:[0.70:0.70]:[0.70:0.70]:[0.70:0.70] / aq3-sensitivity=10.00 / aq3-factor=[1.00:1.00]:[1.00:1.00]:[1.00:1.00] / aq3-boundary=192:64:24
  33. Language                                 : Spanish
  34. Default                                  : Yes
  35. Forced                                   : No
  36. Color primaries                          : BT.709
  37. Transfer characteristics                 : BT.709
  38. Matrix coefficients                      : BT.709
  39.  
  40. Audio #1
  41. ID                                       : 2
  42. Format                                   : AC-3
  43. Format/Info                              : Audio Coding 3
  44. Mode extension                           : CM (complete main)
  45. Format settings, Endianness              : Big
  46. Codec ID                                 : A_AC3
  47. Duration                                 : 1h 29mn
  48. Bit rate mode                            : Constant
  49. Bit rate                                 : 448 Kbps
  50. Channel count                            : 6 channels
  51. Channel positions                        : Front: L C R, Side: L R, LFE
  52. Sampling rate                            : 48.0 KHz
  53. Bit depth                                : 16 bits
  54. Compression mode                         : Lossy
  55. Stream size                              : 287 MiB (2%)
  56. Language                                 : Spanish
  57. Default                                  : Yes
  58. Forced                                   : No
  59.  
  60. Audio #2
  61. ID                                       : 3
  62. Format                                   : AC-3
  63. Format/Info                              : Audio Coding 3
  64. Mode extension                           : CM (complete main)
  65. Format settings, Endianness              : Big
  66. Codec ID                                 : A_AC3
  67. Duration                                 : 1h 29mn
  68. Bit rate mode                            : Constant
  69. Bit rate                                 : 640 Kbps
  70. Channel count                            : 6 channels
  71. Channel positions                        : Front: L C R, Side: L R, LFE
  72. Sampling rate                            : 48.0 KHz
  73. Bit depth                                : 16 bits
  74. Compression mode                         : Lossy
  75. Stream size                              : 409 MiB (3%)
  76. Language                                 : French
  77. Default                                  : No
  78. Forced                                   : No
  79.  
  80. Text #1
  81. ID                                       : 4
  82. Format                                   : UTF-8
  83. Codec ID                                 : S_TEXT/UTF8
  84. Codec ID/Info                            : UTF-8 Plain Text
  85. Language                                 : Spanish
  86. Default                                  : No
  87. Forced                                   : No
  88.  
  89. Text #2
  90. ID                                       : 5
  91. Format                                   : UTF-8
  92. Codec ID                                 : S_TEXT/UTF8
  93. Codec ID/Info                            : UTF-8 Plain Text
  94. Title                                    : srt (Google translation)
  95. Language                                 : English
  96. Default                                  : No
  97. Forced                                   : No
  98.  
  99. Text #3
  100. ID                                       : 6
  101. Format                                   : PGS
  102. Muxing mode                              : zlib
  103. Codec ID                                 : S_HDMV/PGS
  104. Codec ID/Info                            : The same subtitle format used on BDs/HD-DVDs
  105. Language                                 : French
  106. Default                                  : No
  107. Forced                                   : No
  108.  
  109. Menu
  110. 00:00:00.000                             : en: Chapter 1
  111. 00:04:59.625                             : en: Chapter 2
  112. 00:09:17.375                             : en: Chapter 3
  113. 00:15:05.417                             : en: Chapter 4
  114. 00:23:48.375                             : en: Chapter 5
  115. 00:30:44.417                             : en: Chapter 6
  116. 00:41:57.833                             : en: Chapter 7
  117. 00:46:24.333                             : en: Chapter 8
  118. 00:53:48.792                             : en: Chapter 9
  119. 01:04:26.667                             : en: Chapter 10
  120. 01:13:49.250                             : en: Chapter 11
  121. 01:21:16.125                             : en: Chapter 12
RAW Paste Data
Top