SHARE
TWEET

Untitled

a guest Dec 11th, 2019 76 Never
Not a member of Pastebin yet? Sign Up, it unlocks many cool features!
  1. General
  2. Unique ID                                : 243568645278478840110774893704851340664 (0xB73D9D5FF7233D2C9A04FB964851BD78)
  3. Complete name                            : I:\MultHD\Dumbo.1941.720p.BluRay.3xRus.2xEng.HDCLUB.mkv
  4. Format                                   : Matroska
  5. Format version                           : Version 2
  6. File size                                : 2.11 GiB
  7. Duration                                 : 1 h 3 min
  8. Overall bit rate                         : 4 725 kb/s
  9. Movie name                               : Dumbo (1941) - Release for HDCLUB
  10. Encoded date                             : UTC 2010-02-08 20:55:43
  11. Writing application                      : mkvmerge v3.0.0 ('Hang up your Hang-Ups') built on Dec 12 2009 15:20:35
  12. Writing library                          : libebml v0.7.9 + libmatroska v0.8.1
  13.  
  14. Video
  15. ID                                       : 1
  16. Format                                   : AVC
  17. Format/Info                              : Advanced Video Codec
  18. Format profile                           : High@L4.1
  19. Format settings                          : CABAC / 8 Ref Frames
  20. Format settings, CABAC                   : Yes
  21. Format settings, Reference frames        : 8 frames
  22. Codec ID                                 : V_MPEG4/ISO/AVC
  23. Duration                                 : 1 h 3 min
  24. Bit rate                                 : 2 995 kb/s
  25. Width                                    : 960 pixels
  26. Height                                   : 720 pixels
  27. Display aspect ratio                     : 4:3
  28. Frame rate mode                          : Constant
  29. Frame rate                               : 23.976 FPS
  30. Color space                              : YUV
  31. Chroma subsampling                       : 4:2:0
  32. Bit depth                                : 8 bits
  33. Scan type                                : Progressive
  34. Bits/(Pixel*Frame)                       : 0.181
  35. Stream size                              : 1.30 GiB (61%)
  36. Title                                    : Release for HDCLUB
  37. Writing library                          : x264 core 84 r1400M 20fa784
  38. Encoding settings                        : cabac=1 / ref=8 / deblock=1:-1:-1 / analyse=0x3:0x113 / me=umh / subme=9 / psy=1 / psy_rd=1.0:0.0 / mixed_ref=1 / me_range=32 / chroma_me=1 / trellis=2 / 8x8dct=1 / cqm=0 / deadzone=21,11 / fast_pskip=0 / chroma_qp_offset=-2 / threads=12 / sliced_threads=0 / nr=0 / decimate=0 / mbaff=0 / constrained_intra=0 / bframes=8 / b_pyramid=2 / b_adapt=2 / b_bias=0 / direct=3 / wpredb=1 / wpredp=2 / keyint=240 / keyint_min=24 / scenecut=40 / intra_refresh=0 / rc_lookahead=80 / rc=2pass / mbtree=1 / bitrate=2995 / ratetol=1.0 / qcomp=0.80 / qpmin=10 / qpmax=51 / qpstep=4 / cplxblur=20.0 / qblur=0.5 / vbv_maxrate=50000 / vbv_bufsize=62500 / ip_ratio=1.40 / aq=1:0.80 / pulldown=0 / nal_hrd=0
  39. Language                                 : English
  40. Default                                  : No
  41. Forced                                   : No
  42.  
  43. Audio #1
  44. ID                                       : 2
  45. Format                                   : AC-3
  46. Format/Info                              : Audio Coding 3
  47. Commercial name                          : Dolby Digital
  48. Codec ID                                 : A_AC3
  49. Duration                                 : 1 h 3 min
  50. Bit rate mode                            : Constant
  51. Bit rate                                 : 192 kb/s
  52. Channel(s)                               : 2 channels
  53. Channel layout                           : L R
  54. Sampling rate                            : 48.0 kHz
  55. Frame rate                               : 31.250 FPS (1536 SPF)
  56. Bit depth                                : 16 bits
  57. Compression mode                         : Lossy
  58. Stream size                              : 87.8 MiB (4%)
  59. Title                                    : AC3 2.0 @ 192 kbps - Дублированный, R5
  60. Language                                 : Russian
  61. Service kind                             : Complete Main
  62. Default                                  : Yes
  63. Forced                                   : No
  64.  
  65. Audio #2
  66. ID                                       : 3
  67. Format                                   : AC-3
  68. Format/Info                              : Audio Coding 3
  69. Commercial name                          : Dolby Digital
  70. Codec ID                                 : A_AC3
  71. Duration                                 : 1 h 3 min
  72. Bit rate mode                            : Constant
  73. Bit rate                                 : 448 kb/s
  74. Channel(s)                               : 6 channels
  75. Channel layout                           : L R C LFE Ls Rs
  76. Sampling rate                            : 48.0 kHz
  77. Frame rate                               : 31.250 FPS (1536 SPF)
  78. Bit depth                                : 16 bits
  79. Compression mode                         : Lossy
  80. Stream size                              : 205 MiB (9%)
  81. Title                                    : AC3 5.1 @ 448 kbps - Двухголосый закадровый, П.Гланц и Т.Казакова
  82. Language                                 : Russian
  83. Service kind                             : Complete Main
  84. Default                                  : No
  85. Forced                                   : No
  86.  
  87. Audio #3
  88. ID                                       : 4
  89. Format                                   : AC-3
  90. Format/Info                              : Audio Coding 3
  91. Commercial name                          : Dolby Digital
  92. Codec ID                                 : A_AC3
  93. Duration                                 : 1 h 3 min
  94. Bit rate mode                            : Constant
  95. Bit rate                                 : 448 kb/s
  96. Channel(s)                               : 6 channels
  97. Channel layout                           : L R C LFE Ls Rs
  98. Sampling rate                            : 48.0 kHz
  99. Frame rate                               : 31.250 FPS (1536 SPF)
  100. Bit depth                                : 16 bits
  101. Compression mode                         : Lossy
  102. Stream size                              : 205 MiB (9%)
  103. Title                                    : AC3 5.1 @ 448 kbps - Одноголосый закадровый, А. Михалев
  104. Language                                 : Russian
  105. Service kind                             : Complete Main
  106. Default                                  : No
  107. Forced                                   : No
  108.  
  109. Audio #4
  110. ID                                       : 5
  111. Format                                   : AC-3
  112. Format/Info                              : Audio Coding 3
  113. Commercial name                          : Dolby Digital
  114. Codec ID                                 : A_AC3
  115. Duration                                 : 1 h 3 min
  116. Bit rate mode                            : Constant
  117. Bit rate                                 : 448 kb/s
  118. Channel(s)                               : 6 channels
  119. Channel layout                           : L R C LFE Ls Rs
  120. Sampling rate                            : 48.0 kHz
  121. Frame rate                               : 31.250 FPS (1536 SPF)
  122. Bit depth                                : 16 bits
  123. Compression mode                         : Lossy
  124. Stream size                              : 205 MiB (9%)
  125. Title                                    : AC3 5.1 @ 448 kbps
  126. Language                                 : English
  127. Service kind                             : Complete Main
  128. Default                                  : No
  129. Forced                                   : No
  130.  
  131. Audio #5
  132. ID                                       : 6
  133. Format                                   : AC-3
  134. Format/Info                              : Audio Coding 3
  135. Commercial name                          : Dolby Digital
  136. Codec ID                                 : A_AC3
  137. Duration                                 : 1 h 3 min
  138. Bit rate mode                            : Constant
  139. Bit rate                                 : 192 kb/s
  140. Channel(s)                               : 2 channels
  141. Channel layout                           : L R
  142. Sampling rate                            : 48.0 kHz
  143. Frame rate                               : 31.250 FPS (1536 SPF)
  144. Bit depth                                : 16 bits
  145. Compression mode                         : Lossy
  146. Stream size                              : 87.8 MiB (4%)
  147. Title                                    : AC3 2.0 @ 192 kbps - Комментарии
  148. Language                                 : English
  149. Service kind                             : Complete Main
  150. Default                                  : No
  151. Forced                                   : No
  152.  
  153. Text #1
  154. ID                                       : 7
  155. Format                                   : UTF-8
  156. Codec ID                                 : S_TEXT/UTF8
  157. Codec ID/Info                            : UTF-8 Plain Text
  158. Language                                 : Russian
  159. Default                                  : No
  160. Forced                                   : No
  161.  
  162. Text #2
  163. ID                                       : 8
  164. Format                                   : UTF-8
  165. Codec ID                                 : S_TEXT/UTF8
  166. Codec ID/Info                            : UTF-8 Plain Text
  167. Language                                 : English
  168. Default                                  : No
  169. Forced                                   : No
  170.  
  171. Menu
  172. 00:00:00.000                             : :1. Opening Credits
  173. 00:01:19.871                             : :2. Lookout for Mr.Stork
  174. 00:04:14.921                             : :3. The Circus Moves On "Caesar Junior"
  175. 00:06:34.352                             : :4. Dumbo Delivered
  176. 00:12:49.727                             : :5. Setting Up the Big Top"Song of the Roustabouts"
  177. 00:17:01.437                             : :6. A Bath for Dumbo
  178. 00:20:08.040                             : :7. Mrs.Jumbo in Solitary Confinement
  179. 00:23:32.703                             : :8. Dumbo Meets a New Friend
  180. 00:28:30.542                             : :9. A Pyramid of Pachyderms
  181. 00:35:19.534                             : :10. Dumbo's Disgrace
  182. 00:38:11.915                             : :11. Dumbo Visits His Mother "Baby Mine"
  183. 00:42:34.510                             : :12. Dumbo Gets the Hiccups
  184. 00:46:07.723                             : :13. "Pink Elephants on Parade"
  185. 00:51:00.683                             : :14. Up a Tree
  186. 00:54:42.279                             : :15. "When I See An Elephant Fly"
  187. 00:58:40.350                             : :16. Dumbo Flies!
  188. 01:00:19.449                             : :17. Dumbo's Surprise
RAW Paste Data
We use cookies for various purposes including analytics. By continuing to use Pastebin, you agree to our use of cookies as described in the Cookies Policy. OK, I Understand
 
Top