SHARE
TWEET

Broken.Arrow.1996.BluRay.1080p.DTS-HD.MA.5.1.MPEG-2.REMUX-FraMeSToR

a guest Jun 11th, 2019 22 Never
Not a member of Pastebin yet? Sign Up, it unlocks many cool features!
  1. General
  2. Complete name                            : Broken.Arrow.1996.BluRay.1080p.DTS-HD.MA.5.1.MPEG-2.REMUX-FraMeSToR.mkv
  3. Format                                   : Matroska
  4. Format version                           : Version 4
  5. File size                                : 18.8 GiB
  6. Duration                                 : 1 h 48 min
  7. Overall bit rate mode                    : Variable
  8. Overall bit rate                         : 24.9 Mb/s
  9. Encoded date                             : UTC 2018-01-20 14:55:35
  10. Writing application                      : mkvmerge v20.0.0 ('I Am The Sun') 64-bit
  11. Writing library                          : libebml v1.3.5 + libmatroska v1.4.8
  12.  
  13. Video
  14. ID                                       : 1
  15. Format                                   : MPEG Video
  16. Format version                           : Version 2
  17. Format profile                           : Main@High
  18. Format settings                          : CustomMatrix / BVOP
  19. Format settings, BVOP                    : Yes
  20. Format settings, Matrix                  : Custom
  21. Format settings, GOP                     : M=3, N=12
  22. Codec ID                                 : V_MPEG2
  23. Codec ID/Info                            : MPEG 1 or 2 Video
  24. Duration                                 : 1 h 48 min
  25. Bit rate mode                            : Variable
  26. Bit rate                                 : 20.4 Mb/s
  27. Maximum bit rate                         : 40.0 Mb/s
  28. Width                                    : 1 920 pixels
  29. Height                                   : 1 080 pixels
  30. Display aspect ratio                     : 16:9
  31. Frame rate mode                          : Constant
  32. Frame rate                               : 23.976 (24000/1001) FPS
  33. Color space                              : YUV
  34. Chroma subsampling                       : 4:2:0
  35. Bit depth                                : 8 bits
  36. Scan type                                : Progressive
  37. Compression mode                         : Lossy
  38. Bits/(Pixel*Frame)                       : 0.410
  39. Time code of first frame                 : 00:00:00:00
  40. Time code source                         : Group of pictures header
  41. GOP, Open/Closed                         : Open
  42. GOP, Open/Closed of first frame          : Closed
  43. Stream size                              : 15.4 GiB (82%)
  44. Default                                  : Yes
  45. Forced                                   : No
  46.  
  47. Audio
  48. ID                                       : 2
  49. Format                                   : DTS XLL
  50. Format/Info                              : Digital Theater Systems
  51. Commercial name                          : DTS-HD Master Audio
  52. Codec ID                                 : A_DTS
  53. Duration                                 : 1 h 48 min
  54. Bit rate mode                            : Variable
  55. Bit rate                                 : 4 424 kb/s
  56. Channel(s)                               : 6 channels
  57. Channel layout                           : C L R Ls Rs LFE
  58. Sampling rate                            : 48.0 kHz
  59. Frame rate                               : 93.750 FPS (512 SPF)
  60. Bit depth                                : 24 bits
  61. Compression mode                         : Lossless
  62. Stream size                              : 3.35 GiB (18%)
  63. Title                                    : DTS-HD MA 5.1
  64. Language                                 : English
  65. Default                                  : Yes
  66. Forced                                   : No
  67.  
  68. Text #1
  69. ID                                       : 3
  70. Format                                   : PGS
  71. Codec ID                                 : S_HDMV/PGS
  72. Codec ID/Info                            : Picture based subtitle format used on BDs/HD-DVDs
  73. Duration                                 : 1 h 40 min
  74. Bit rate                                 : 23.1 kb/s
  75. Count of elements                        : 1819
  76. Stream size                              : 16.6 MiB (0%)
  77. Title                                    : English
  78. Language                                 : English
  79. Default                                  : Yes
  80. Forced                                   : No
  81.  
  82. Text #2
  83. ID                                       : 4
  84. Format                                   : PGS
  85. Codec ID                                 : S_HDMV/PGS
  86. Codec ID/Info                            : Picture based subtitle format used on BDs/HD-DVDs
  87. Duration                                 : 1 h 40 min
  88. Bit rate                                 : 23.3 kb/s
  89. Count of elements                        : 1827
  90. Stream size                              : 16.7 MiB (0%)
  91. Title                                    : French
  92. Language                                 : French
  93. Default                                  : No
  94. Forced                                   : No
  95.  
  96. Text #3
  97. ID                                       : 5
  98. Format                                   : PGS
  99. Codec ID                                 : S_HDMV/PGS
  100. Codec ID/Info                            : Picture based subtitle format used on BDs/HD-DVDs
  101. Duration                                 : 1 h 40 min
  102. Bit rate                                 : 24.9 kb/s
  103. Count of elements                        : 1837
  104. Stream size                              : 17.9 MiB (0%)
  105. Title                                    : German
  106. Language                                 : German
  107. Default                                  : No
  108. Forced                                   : No
  109.  
  110. Text #4
  111. ID                                       : 6
  112. Format                                   : PGS
  113. Codec ID                                 : S_HDMV/PGS
  114. Codec ID/Info                            : Picture based subtitle format used on BDs/HD-DVDs
  115. Duration                                 : 1 h 40 min
  116. Bit rate                                 : 17.8 kb/s
  117. Count of elements                        : 1266
  118. Stream size                              : 12.8 MiB (0%)
  119. Title                                    : Dutch
  120. Language                                 : Dutch
  121. Default                                  : No
  122. Forced                                   : No
  123.  
  124. Menu
  125. 00:00:00.000                             : en:Sparring Partners
  126. 00:05:28.285                             : en:Predawn Run
  127. 00:13:03.156                             : en:Skyjacked
  128. 00:17:41.977                             : en:A Press Release
  129. 00:20:00.907                             : en:No Nukes
  130. 00:22:59.336                             : en:An Officer and a Ranger
  131. 00:26:38.929                             : en:On Schedule
  132. 00:33:55.239                             : en:Air Raid
  133. 00:42:54.655                             : en:Road Games
  134. 00:50:53.007                             : en:Armed and Dangerous
  135. 00:53:59.402                             : en:Going Underground
  136. 01:04:42.711                             : en:Race Against Time
  137. 01:08:48.164                             : en:Having a Blast
  138. 01:11:17.146                             : en:Back on Deakins' Trail
  139. 01:14:29.881                             : en:The Stowaway
  140. 01:18:00.509                             : en:"What About the Girl?"
  141. 01:20:56.184                             : en:Making Tracks
  142. 01:26:34.189                             : en:The Rescuers
  143. 01:28:49.532                             : en:Crack Shot
  144. 01:30:31.175                             : en:Riding the Rails
  145. 01:33:05.578                             : en:The Final Countdown
  146. 01:42:13.417                             : en:End Titles
RAW Paste Data
We use cookies for various purposes including analytics. By continuing to use Pastebin, you agree to our use of cookies as described in the Cookies Policy. OK, I Understand
 
Top