SHARE
TWEET

Honeymoon.in.Vegas.1992.1080p.BluRay.x264-FilmHD

a guest Jun 1st, 2019 21 Never
Not a member of Pastebin yet? Sign Up, it unlocks many cool features!
  1. General
  2. Complete name                            : Honeymoon.in.Vegas.1992.1080p.BluRay.x264-FilmHD.mkv
  3. Format                                   : Matroska
  4. Format version                           : Version 2
  5. File size                                : 6.55 GiB
  6. Duration                                 : 1 h 35 min
  7. Overall bit rate                         : 9 798 kb/s
  8. Writing application                      : x264.exe
  9. Writing library                          : mkv2rls v1.3 (date: 2010 aug 28)
  10.  
  11. Video
  12. ID                                       : 1
  13. Format                                   : AVC
  14. Format/Info                              : Advanced Video Codec
  15. Format profile                           : High@L4.1
  16. Format settings                          : CABAC / 4 Ref Frames
  17. Format settings, CABAC                   : Yes
  18. Format settings, Reference frames        : 4 frames
  19. Codec ID                                 : V_MPEG4/ISO/AVC
  20. Duration                                 : 1 h 35 min
  21. Bit rate                                 : 9 550 kb/s
  22. Width                                    : 1 920 pixels
  23. Height                                   : 1 040 pixels
  24. Display aspect ratio                     : 1.85:1
  25. Frame rate mode                          : Constant
  26. Frame rate                               : 23.976 (24000/1001) FPS
  27. Color space                              : YUV
  28. Chroma subsampling                       : 4:2:0
  29. Bit depth                                : 8 bits
  30. Scan type                                : Progressive
  31. Bits/(Pixel*Frame)                       : 0.199
  32. Stream size                              : 6.25 GiB (95%)
  33. Writing library                          : x264 core 114 r1900 60ef1f8
  34. Encoding settings                        : cabac=1 / ref=4 / deblock=1:0:0 / analyse=0x3:0x113 / me=umh / subme=8 / psy=1 / psy_rd=1.00:0.00 / mixed_ref=1 / me_range=16 / chroma_me=1 / trellis=1 / 8x8dct=1 / cqm=0 / deadzone=21,11 / fast_pskip=1 / chroma_qp_offset=-2 / threads=12 / sliced_threads=0 / nr=0 / decimate=1 / interlaced=0 / constrained_intra=0 / bframes=3 / b_pyramid=2 / b_adapt=2 / b_bias=0 / direct=3 / weightb=1 / open_gop=0 / weightp=2 / keyint=240 / keyint_min=24 / scenecut=40 / intra_refresh=0 / rc_lookahead=50 / rc=2pass / mbtree=1 / bitrate=9550 / ratetol=1.0 / qcomp=0.60 / qpmin=0 / qpmax=69 / qpstep=4 / cplxblur=20.0 / qblur=0.5 / ip_ratio=1.40 / aq=1:1.00
  35. Language                                 : English
  36. Default                                  : Yes
  37. Forced                                   : No
  38.  
  39. Audio
  40. ID                                       : 2
  41. Format                                   : DTS
  42. Format/Info                              : Digital Theater Systems
  43. Codec ID                                 : A_DTS
  44. Duration                                 : 1 h 35 min
  45. Bit rate mode                            : Constant
  46. Bit rate                                 : 255 kb/s
  47. Channel(s)                               : 6 channels
  48. Channel(s)_Original                      : 2 channels
  49. Channel layout                           : Lt Rt
  50. Sampling rate                            : 48.0 kHz
  51. Frame rate                               : 93.750 FPS (512 SPF)
  52. Bit depth                                : 24 bits
  53. Compression mode                         : Lossy
  54. Stream size                              : 175 MiB (3%)
  55. Language                                 : English
  56. Default                                  : Yes
  57. Forced                                   : No
  58.  
  59. Text #1
  60. ID                                       : 3
  61. Format                                   : UTF-8
  62. Codec ID                                 : S_TEXT/UTF8
  63. Codec ID/Info                            : UTF-8 Plain Text
  64. Language                                 : English
  65. Default                                  : No
  66. Forced                                   : No
  67.  
  68. Text #2
  69. ID                                       : 4
  70. Format                                   : UTF-8
  71. Codec ID                                 : S_TEXT/UTF8
  72. Codec ID/Info                            : UTF-8 Plain Text
  73. Language                                 : French
  74. Default                                  : No
  75. Forced                                   : No
  76.  
  77. Text #3
  78. ID                                       : 5
  79. Format                                   : UTF-8
  80. Codec ID                                 : S_TEXT/UTF8
  81. Codec ID/Info                            : UTF-8 Plain Text
  82. Language                                 : Spanish
  83. Default                                  : No
  84. Forced                                   : No
  85.  
  86. Menu
  87. 00:00:00.000                             : en:00:00:00.000
  88. 00:01:51.611                             : en:00:01:51.611
  89. 00:03:56.319                             : en:00:03:56.319
  90. 00:05:58.984                             : en:00:05:58.984
  91. 00:09:19.184                             : en:00:09:19.184
  92. 00:11:43.703                             : en:00:11:43.703
  93. 00:14:15.480                             : en:00:14:15.480
  94. 00:17:30.424                             : en:00:17:30.424
  95. 00:19:08.814                             : en:00:19:08.814
  96. 00:21:01.302                             : en:00:21:01.302
  97. 00:25:23.605                             : en:00:25:23.605
  98. 00:29:24.846                             : en:00:29:24.846
  99. 00:32:05.882                             : en:00:32:05.882
  100. 00:36:04.662                             : en:00:36:04.662
  101. 00:40:51.407                             : en:00:40:51.407
  102. 00:45:09.999                             : en:00:45:09.999
  103. 00:47:27.344                             : en:00:47:27.344
  104. 00:48:48.884                             : en:00:48:48.884
  105. 00:52:22.014                             : en:00:52:22.014
  106. 00:54:20.549                             : en:00:54:20.549
  107. 00:56:29.386                             : en:00:56:29.386
  108. 00:57:41.083                             : en:00:57:41.083
  109. 01:04:30.784                             : en:01:04:30.784
  110. 01:08:07.500                             : en:01:08:07.500
  111. 01:11:11.058                             : en:01:11:11.058
  112. 01:14:26.420                             : en:01:14:26.420
  113. 01:17:19.969                             : en:01:17:19.969
  114. 01:18:59.443                             : en:01:18:59.443
  115. 01:21:44.733                             : en:01:21:44.733
  116. 01:23:59.826                             : en:01:23:59.826
  117. 01:25:12.983                             : en:01:25:12.983
  118. 01:31:04.501                             : en:01:31:04.501
RAW Paste Data
We use cookies for various purposes including analytics. By continuing to use Pastebin, you agree to our use of cookies as described in the Cookies Policy. OK, I Understand
Not a member of Pastebin yet?
Sign Up, it unlocks many cool features!
 
Top