daily pastebin goal
10%
SHARE
TWEET

Daphne & Velma BluRay 720p

dirtyharrys May 16th, 2018 210 Never
Not a member of Pastebin yet? Sign Up, it unlocks many cool features!
  1. General
  2. Unique ID                   : 204728111359319486274917027418221847327 (0x9A05333404825B209B0360C88C30231F)
  3. Complete name               : C:\Users\Novack\RGFwaG5lYW5kVmVsbWE.mkv
  4. Format                      : Matroska
  5. Format version              : Version 4 / Version 2
  6. File size                   : 1 014 MiB
  7. Duration                    : 1 h 15 min
  8. Overall bit rate            : 1 886 kb/s
  9. Movie name                  : Daphne and Velma BR-R / Daphne and Velma BR-R
  10. Encoded date                : UTC 2018-05-16 07:55:23
  11. Writing application         : mkvmerge v12.0.0 ('Trust / Lust') 32bit
  12. Writing library             : libebml v1.3.4 + libmatroska v1.4.5
  13. Copyright                   : Movies HDs 2018
  14. ARTIST                      : HarshLearner
  15.  
  16. Video
  17. ID                          : 1
  18. Format                      : AVC
  19. Format/Info                 : Advanced Video Codec
  20. Format profile              : High@L4.1
  21. Format settings             : CABAC / 4 Ref Frames
  22. Format settings, CABAC      : Yes
  23. Format settings, ReFrames   : 4 frames
  24. Codec ID                    : V_MPEG4/ISO/AVC
  25. Duration                    : 1 h 15 min
  26. Bit rate                    : 1 500 kb/s
  27. Width                       : 1 280 pixels
  28. Height                      : 720 pixels
  29. Display aspect ratio        : 16:9
  30. Frame rate mode             : Constant
  31. Frame rate                  : 23.976 (23976/1000) FPS
  32. Color space                 : YUV
  33. Chroma subsampling          : 4:2:0
  34. Bit depth                   : 8 bits
  35. Scan type                   : Progressive
  36. Bits/(Pixel*Frame)          : 0.068
  37. Stream size                 : 807 MiB (80%)
  38. Title                       : Daphne and Velma
  39. Writing library             : x264 core 152 r2851M ba24899
  40. Language                    : English
  41. Default                     : Yes
  42. Forced                      : No
  43.  
  44. Audio
  45. ID                          : 2
  46. Format                      : AC-3
  47. Format/Info                 : Audio Coding 3
  48. Codec ID                    : A_AC3
  49. Duration                    : 1 h 15 min
  50. Bit rate mode               : Constant
  51. Bit rate                    : 384 kb/s
  52. Channel(s)                  : 6 channels
  53. Channel positions           : Front: L C R, Side: L R, LFE
  54. Sampling rate               : 48.0 kHz
  55. Frame rate                  : 31.250 FPS (1536 SPF)
  56. Bit depth                   : 16 bits
  57. Compression mode            : Lossy
  58. Delay relative to video     : -43 ms
  59. Stream size                 : 207 MiB (20%)
  60. Language                    : English
  61. Service kind                : Complete Main
  62. Default                     : Yes
  63. Forced                      : No
  64.  
  65. Text #1
  66. ID                          : 3
  67. Format                      : UTF-8
  68. Codec ID                    : S_TEXT/UTF8
  69. Codec ID/Info               : UTF-8 Plain Text
  70. Duration                    : 1 h 11 min
  71. Bit rate                    : 96 b/s
  72. Count of elements           : 1599
  73. Stream size                 : 50.6 KiB (0%)
  74. Language                    : English
  75. Default                     : No
  76. Forced                      : No
  77.  
  78. Text #2
  79. ID                          : 4
  80. Format                      : UTF-8
  81. Codec ID                    : S_TEXT/UTF8
  82. Codec ID/Info               : UTF-8 Plain Text
  83. Duration                    : 1 h 11 min
  84. Bit rate                    : 89 b/s
  85. Count of elements           : 1252
  86. Stream size                 : 47.1 KiB (0%)
  87. Language                    : Spanish
  88. Default                     : Yes
  89. Forced                      : Yes
RAW Paste Data
We use cookies for various purposes including analytics. By continuing to use Pastebin, you agree to our use of cookies as described in the Cookies Policy. OK, I Understand
 
Top