TolstiyMob

Katanagatari Vol.8 Bitou Kanzashi

Nov 12th, 2011
84
Never
Not a member of Pastebin yet? Sign Up, it unlocks many cool features!
  1. Disc Title: BDROM
  2. Disc Size: 17 470 401 328 bytes
  3. Protection: AACS
  4. BD-Java: No
  5. BDInfo: 0.5.6
  6.  
  7. Notes:
  8.  
  9. BDINFO HOME:
  10. Cinema Squid
  11. http://www.cinemasquid.com/blu-ray/tools/bdinfo
  12.  
  13. INCLUDES FORUMS REPORT FOR:
  14. AVS Forum Blu-ray Audio and Video Specifications Thread
  15. http://www.avsforum.com/avs-vb/showthread.php?t=1155731
  16.  
  17.  
  18. ********************
  19. PLAYLIST: 00000.MPLS
  20. ********************
  21.  
  22. <--- BEGIN FORUMS PASTE --->
  23. [code]
  24. Total Video
  25. Title Codec Length Movie Size Disc Size Bitrate Bitrate Main Audio Track Secondary Audio Track
  26. ----- ------ ------- -------------- -------------- ------- ------- ------------------ ---------------------
  27. 00000.MPLS AVC 0:49:50 15 761 989 632 17 470 401 328 42,17 37,99 LPCM 2.0 2304Kbps (48kHz/24-bit)
  28. [/code]
  29.  
  30. [code]
  31.  
  32. DISC INFO:
  33.  
  34. Disc Title: BDROM
  35. Disc Size: 17 470 401 328 bytes
  36. Protection: AACS
  37. BD-Java: No
  38. BDInfo: 0.5.6
  39.  
  40. PLAYLIST REPORT:
  41.  
  42. Name: 00000.MPLS
  43. Length: 0:49:50 (h:m:s)
  44. Size: 15 761 989 632 bytes
  45. Total Bitrate: 42,17 Mbps
  46.  
  47. VIDEO:
  48.  
  49. Codec Bitrate Description
  50. ----- ------- -----------
  51. MPEG-4 AVC Video 37990 kbps 1080p / 23,976 fps / 16:9 / High Profile 4.1
  52.  
  53. AUDIO:
  54.  
  55. Codec Language Bitrate Description
  56. ----- -------- ------- -----------
  57. LPCM Audio Japanese 2304 kbps 2.0 / 48 kHz / 2304 kbps / 24-bit
  58.  
  59. FILES:
  60.  
  61. Name Time In Length Size Total Bitrate
  62. ---- ------- ------ ---- -------------
  63. 00000.M2TS 0:00:00.000 0:49:50.028 15 761 989 632 42 172
  64.  
  65. CHAPTERS:
  66.  
  67. Number Time In Length Avg Video Rate Max 1-Sec Rate Max 1-Sec Time Max 5-Sec Rate Max 5-Sec Time Max 10Sec Rate Max 10Sec Time Avg Frame Size Max Frame Size Max Frame Time
  68. ------ ------- ------ -------------- -------------- -------------- -------------- -------------- -------------- -------------- -------------- -------------- --------------
  69. 1 0:00:00.000 0:01:35.011 34 489 kbps 43 594 kbps 00:00:46.546 40 366 kbps 00:00:51.468 40 051 kbps 00:00:47.464 179 732 bytes 640 992 bytes 00:00:48.506
  70. 2 0:01:35.011 0:01:29.964 38 263 kbps 43 472 kbps 00:02:36.072 40 364 kbps 00:02:50.003 39 826 kbps 00:01:44.229 199 487 bytes 640 309 bytes 00:02:37.657
  71. 3 0:03:04.976 0:14:41.005 37 702 kbps 46 242 kbps 00:14:50.806 41 127 kbps 00:14:46.760 40 366 kbps 00:14:41.839 196 562 bytes 641 032 bytes 00:03:23.494
  72. 4 0:17:45.981 0:11:51.961 39 390 kbps 44 167 kbps 00:17:54.198 40 397 kbps 00:21:50.600 40 058 kbps 00:21:45.554 205 361 bytes 640 914 bytes 00:26:51.901
  73. 5 0:29:37.942 0:10:21.037 38 326 kbps 44 343 kbps 00:33:17.662 40 539 kbps 00:33:13.032 39 951 kbps 00:33:07.986 199 814 bytes 640 932 bytes 00:29:49.245
  74. 6 0:39:58.979 0:07:42.044 37 404 kbps 44 642 kbps 00:47:23.048 40 285 kbps 00:40:10.449 39 926 kbps 00:44:48.310 195 009 bytes 640 936 bytes 00:47:30.556
  75. 7 0:47:41.024 0:01:29.964 39 199 kbps 42 943 kbps 00:49:09.029 40 084 kbps 00:49:05.067 39 651 kbps 00:49:00.062 204 363 bytes 641 001 bytes 00:48:17.060
  76. 8 0:49:10.989 0:00:37.203 26 798 kbps 42 619 kbps 00:49:14.785 40 036 kbps 00:49:21.416 39 709 kbps 00:49:20.874 139 714 bytes 585 314 bytes 00:49:23.502
  77. 9 0:49:48.193 0:00:01.835 2 001 kbps 3 644 kbps 00:49:48.986 0 kbps 00:00:00.000 0 kbps 00:00:00.000 10 673 bytes 208 334 bytes 00:49:49.987
  78.  
  79. STREAM DIAGNOSTICS:
  80.  
  81. File PID Type Codec Language Seconds Bitrate Bytes Packets
  82. ---- --- ---- ----- -------- -------------- -------------- ------------- -----
  83. 00000.M2TS 4113 (0x1011) 0x1B AVC 2989,862 37 992 14 198 839 287 77 209 464
  84. 00000.M2TS 4352 (0x1100) 0x80 LPCM jpn (Japanese) 2989,862 2 311 863 520 664 4 784 048
  85.  
  86. [/code]
  87. <---- END FORUMS PASTE ---->
  88.  
  89. QUICK SUMMARY:
  90.  
  91. Disc Title: BDROM
  92. Disc Size: 17 470 401 328 bytes
  93. Protection: AACS
  94. BD-Java: No
  95. Playlist: 00000.MPLS
  96. Size: 15 761 989 632 bytes
  97. Length: 0:49:50
  98. Total Bitrate: 42,17 Mbps
  99. Video: MPEG-4 AVC Video / 37990 kbps / 1080p / 23,976 fps / 16:9 / High Profile 4.1
  100. Audio: Japanese / LPCM Audio / 2.0 / 48 kHz / 2304 kbps / 24-bit
  101.  
  102.  
  103. ********************
  104. PLAYLIST: 00001.MPLS
  105. ********************
  106.  
  107. <--- BEGIN FORUMS PASTE --->
  108. [code]
  109. Total Video
  110. Title Codec Length Movie Size Disc Size Bitrate Bitrate Main Audio Track Secondary Audio Track
  111. ----- ------ ------- -------------- -------------- ------- ------- ------------------ ---------------------
  112. 00001.MPLS AVC 0:01:33 486 291 456 17 470 401 328 41,77 37,61 LPCM 2.0 2304Kbps (48kHz/24-bit)
  113. [/code]
  114.  
  115. [code]
  116.  
  117. DISC INFO:
  118.  
  119. Disc Title: BDROM
  120. Disc Size: 17 470 401 328 bytes
  121. Protection: AACS
  122. BD-Java: No
  123. BDInfo: 0.5.6
  124.  
  125. PLAYLIST REPORT:
  126.  
  127. Name: 00001.MPLS
  128. Length: 0:01:33 (h:m:s)
  129. Size: 486 291 456 bytes
  130. Total Bitrate: 41,77 Mbps
  131.  
  132. VIDEO:
  133.  
  134. Codec Bitrate Description
  135. ----- ------- -----------
  136. MPEG-4 AVC Video 37606 kbps 1080p / 23,976 fps / 16:9 / High Profile 4.1
  137.  
  138. AUDIO:
  139.  
  140. Codec Language Bitrate Description
  141. ----- -------- ------- -----------
  142. LPCM Audio Japanese 2304 kbps 2.0 / 48 kHz / 2304 kbps / 24-bit
  143.  
  144. FILES:
  145.  
  146. Name Time In Length Size Total Bitrate
  147. ---- ------- ------ ---- -------------
  148. 00007.M2TS 0:00:00.000 0:01:33.134 486 291 456 41 771
  149.  
  150. CHAPTERS:
  151.  
  152. Number Time In Length Avg Video Rate Max 1-Sec Rate Max 1-Sec Time Max 5-Sec Rate Max 5-Sec Time Max 10Sec Rate Max 10Sec Time Avg Frame Size Max Frame Size Max Frame Time
  153. ------ ------- ------ -------------- -------------- -------------- -------------- -------------- -------------- -------------- -------------- -------------- --------------
  154. 1 0:00:00.000 0:01:31.091 38 403 kbps 46 316 kbps 00:01:19.913 41 048 kbps 00:01:15.992 40 186 kbps 00:01:10.904 200 125 bytes 640 193 bytes 00:01:03.646
  155. 2 0:01:31.091 0:00:02.043 2 054 kbps 3 044 kbps 00:01:31.800 0 kbps 00:00:00.000 0 kbps 00:00:00.000 10 933 bytes 208 326 bytes 00:01:32.050
  156.  
  157. STREAM DIAGNOSTICS:
  158.  
  159. File PID Type Codec Language Seconds Bitrate Bytes Packets
  160. ---- --- ---- ----- -------- -------------- -------------- ------------- -----
  161. 00007.M2TS 4113 (0x1011) 0x1B AVC 92,968 37 673 437 797 795 2 380 606
  162. 00007.M2TS 4352 (0x1100) 0x80 LPCM jpn (Japanese) 92,968 2 315 26 897 388 149 016
  163.  
  164. [/code]
  165. <---- END FORUMS PASTE ---->
  166.  
  167. QUICK SUMMARY:
  168.  
  169. Disc Title: BDROM
  170. Disc Size: 17 470 401 328 bytes
  171. Protection: AACS
  172. BD-Java: No
  173. Playlist: 00001.MPLS
  174. Size: 486 291 456 bytes
  175. Length: 0:01:33
  176. Total Bitrate: 41,77 Mbps
  177. Video: MPEG-4 AVC Video / 37606 kbps / 1080p / 23,976 fps / 16:9 / High Profile 4.1
  178. Audio: Japanese / LPCM Audio / 2.0 / 48 kHz / 2304 kbps / 24-bit
  179.  
  180.  
  181. ********************
  182. PLAYLIST: 00002.MPLS
  183. ********************
  184.  
  185. <--- BEGIN FORUMS PASTE --->
  186. [code]
  187. Total Video
  188. Title Codec Length Movie Size Disc Size Bitrate Bitrate Main Audio Track Secondary Audio Track
  189. ----- ------ ------- -------------- -------------- ------- ------- ------------------ ---------------------
  190. 00002.MPLS AVC 0:00:38 66 680 832 17 470 401 328 14,02 11,60 LPCM 2.0 1536Kbps (48kHz/16-bit)
  191. [/code]
  192.  
  193. [code]
  194.  
  195. DISC INFO:
  196.  
  197. Disc Title: BDROM
  198. Disc Size: 17 470 401 328 bytes
  199. Protection: AACS
  200. BD-Java: No
  201. BDInfo: 0.5.6
  202.  
  203. PLAYLIST REPORT:
  204.  
  205. Name: 00002.MPLS
  206. Length: 0:00:38 (h:m:s)
  207. Size: 66 680 832 bytes
  208. Total Bitrate: 14,02 Mbps
  209.  
  210. VIDEO:
  211.  
  212. Codec Bitrate Description
  213. ----- ------- -----------
  214. MPEG-4 AVC Video 11601 kbps 1080i / 29,970 fps / 16:9 / High Profile 4.1
  215.  
  216. AUDIO:
  217.  
  218. Codec Language Bitrate Description
  219. ----- -------- ------- -----------
  220. LPCM Audio Japanese 1536 kbps 2.0 / 48 kHz / 1536 kbps / 16-bit
  221.  
  222. FILES:
  223.  
  224. Name Time In Length Size Total Bitrate
  225. ---- ------- ------ ---- -------------
  226. 00003.M2TS 0:00:00.000 0:00:22.021 23 218 176 8 435
  227. 00002.M2TS 0:00:22.021 0:00:16.015 43 462 656 21 710
  228.  
  229. CHAPTERS:
  230.  
  231. Number Time In Length Avg Video Rate Max 1-Sec Rate Max 1-Sec Time Max 5-Sec Rate Max 5-Sec Time Max 10Sec Rate Max 10Sec Time Avg Frame Size Max Frame Size Max Frame Time
  232. ------ ------- ------ -------------- -------------- -------------- -------------- -------------- -------------- -------------- -------------- -------------- --------------
  233. 1 0:00:00.000 0:00:38.037 11 601 kbps 46 121 kbps 00:00:31.564 32 526 kbps 00:00:28.495 27 952 kbps 00:00:23.523 48 385 bytes 489 494 bytes 00:00:03.002
  234.  
  235. STREAM DIAGNOSTICS:
  236.  
  237. File PID Type Codec Language Seconds Bitrate Bytes Packets
  238. ---- --- ---- ----- -------- -------------- -------------- ------------- -----
  239. 00003.M2TS 4113 (0x1011) 0x1B AVC 21,889 6 281 17 184 086 93 744
  240. 00003.M2TS 4352 (0x1100) 0x80 LPCM jpn (Japanese) 21,889 1 552 4 246 420 26 430
  241. 00002.M2TS 4113 (0x1011) 0x1B AVC 15,883 19 128 37 974 761 206 633
  242. 00002.M2TS 4352 (0x1100) 0x80 LPCM jpn (Japanese) 15,883 1 555 3 087 692 19 218
  243.  
  244. [/code]
  245. <---- END FORUMS PASTE ---->
  246.  
  247. QUICK SUMMARY:
  248.  
  249. Disc Title: BDROM
  250. Disc Size: 17 470 401 328 bytes
  251. Protection: AACS
  252. BD-Java: No
  253. Playlist: 00002.MPLS
  254. Size: 66 680 832 bytes
  255. Length: 0:00:38
  256. Total Bitrate: 14,02 Mbps
  257. Video: MPEG-4 AVC Video / 11601 kbps / 1080i / 29,970 fps / 16:9 / High Profile 4.1
  258. Audio: Japanese / LPCM Audio / 2.0 / 48 kHz / 1536 kbps / 16-bit
  259.  
RAW Paste Data