Guest User

[HorribleSubs] Violet Evergarden - 03 [1080p].mkv

a guest
Jan 31st, 2018
51
Never
Not a member of Pastebin yet? Sign Up, it unlocks many cool features!
  1. General
  2. Unique ID : 0 (0x0)
  3. Format : Matroska
  4. Format version : Version 4 / Version 2
  5. File size : 538 MiB
  6. Duration : 24 min 13 s
  7. Overall bit rate mode : Variable
  8. Overall bit rate : 3 107 kb/s
  9. Encoded date : UTC 2010-02-22 21:41:29 / UTC 2018-01-22 08:05:37
  10. Writing application : no_variable_data
  11. Writing library : no_variable_data / Lavf58.0.0
  12. Attachments : OpenSans-Semibold.ttf
  13.  
  14. Video
  15. ID : 1
  16. Format : AVC
  17. Format/Info : Advanced Video Codec
  18. Format profile : Main@L4
  19. Format settings, CABAC : Yes
  20. Format settings, ReFrames : 3 frames
  21. Codec ID : V_MPEG4/ISO/AVC
  22. Duration : 24 min 13 s
  23. Bit rate mode : Variable
  24. Bit rate : 3 010 kb/s
  25. Maximum bit rate : 4 515 kb/s
  26. Width : 1 920 pixels
  27. Height : 1 080 pixels
  28. Display aspect ratio : 16:9
  29. Frame rate mode : Constant
  30. Frame rate : 23.976 (24000/1001) FPS
  31. Color space : YUV
  32. Chroma subsampling : 4:2:0
  33. Bit depth : 8 bits
  34. Scan type : Progressive
  35. Bits/(Pixel*Frame) : 0.061
  36. Stream size : 506 MiB (94%)
  37. Writing library : x264 core 148
  38. Encoding settings : cabac=1 / ref=3 / deblock=1:0:0 / analyse=0x1:0x111 / me=umh / subme=10 / psy=1 / psy_rd=1.00:0.00 / mixed_ref=1 / me_range=24 / chroma_me=1 / trellis=2 / 8x8dct=0 / cqm=0 / deadzone=21,11 / fast_pskip=1 / chroma_qp_offset=-2 / threads=8 / lookahead_threads=1 / sliced_threads=0 / nr=0 / decimate=1 / interlaced=0 / bluray_compat=0 / stitchable=1 / constrained_intra=0 / bframes=2 / b_pyramid=0 / b_adapt=2 / b_bias=0 / direct=3 / weightb=1 / open_gop=0 / weightp=2 / keyint=48 / keyint_min=25 / scenecut=0 / intra_refresh=0 / rc_lookahead=48 / rc=2pass / mbtree=1 / bitrate=3010 / ratetol=1.0 / qcomp=0.50 / qpmin=6 / qpmax=51 / qpstep=4 / cplxblur=20.0 / qblur=0.5 / vbv_maxrate=4515 / vbv_bufsize=6020 / nal_hrd=vbr / filler=0 / ip_ratio=1.40 / aq=1:1.00
  39. Default : Yes
  40. Forced : No
  41. Statistics Tags Issue : no_variable_data 1970-01-01 00:00:00 / no_variable_data 2010-02-22 21:41:29 / UTC 2018-01-22 08:05:37
  42. FromStats_BitRate : 2975372
  43. FromStats_Duration : 00:24:13.744000000
  44. FromStats_FrameCount : 34855
  45. FromStats_StreamSize : 540678734
  46.  
  47. Audio
  48. ID : 2
  49. Format : E-AC-3
  50. Format/Info : Enhanced Audio Coding 3
  51. Format settings, Endianness : Big
  52. Codec ID : A_EAC3
  53. Duration : 24 min 13 s
  54. Bit rate mode : Constant
  55. Bit rate : 128 kb/s
  56. Channel(s) : 2 channels
  57. Channel positions : Front: L R
  58. Sampling rate : 48.0 kHz
  59. Frame rate : 187.500 FPS (256 spf)
  60. Compression mode : Lossy
  61. Stream size : 22.2 MiB (4%)
  62. Language : Japanese
  63. Service kind : Complete Main
  64. Default : Yes
  65. Forced : No
  66. Encoded date : UTC 2018-01-22 08:05:37
  67. HANDLER_NAME : Audio Media Handler
  68. Statistics Tags Issue : no_variable_data 1970-01-01 00:00:00 / no_variable_data 2010-02-22 21:41:29 / UTC 2018-01-22 08:05:37
  69. FromStats_BitRate : 128000
  70. FromStats_Duration : 00:24:13.856000000
  71. FromStats_FrameCount : 45433
  72. FromStats_StreamSize : 23261696
  73.  
  74. Text #1
  75. ID : 3
  76. Format : ASS
  77. Codec ID : S_TEXT/ASS
  78. Codec ID/Info : Advanced Sub Station Alpha
  79. Compression mode : Lossless
  80. Title : English
  81. Language : English
  82. Default : Yes
  83. Forced : Yes
  84. Statistics Tags Issue : no_variable_data 1970-01-01 00:00:00 / no_variable_data 2010-02-22 21:41:29 / UTC 2018-01-22 08:05:37
  85. FromStats_BitRate : 90
  86. FromStats_Duration : 00:23:16.220000000
  87. FromStats_FrameCount : 304
  88. FromStats_StreamSize : 15753
  89.  
  90. Text #2
  91. ID : 4
  92. Format : ASS
  93. Codec ID : S_TEXT/ASS
  94. Codec ID/Info : Advanced Sub Station Alpha
  95. Compression mode : Lossless
  96. Title : French
  97. Language : French
  98. Default : No
  99. Forced : No
  100. Statistics Tags Issue : no_variable_data 1970-01-01 00:00:00 / no_variable_data 2010-02-22 21:41:29 / UTC 2018-01-22 08:05:37
  101. FromStats_BitRate : 87
  102. FromStats_Duration : 00:23:47.930000000
  103. FromStats_FrameCount : 304
  104. FromStats_StreamSize : 15532
  105.  
  106. Text #3
  107. ID : 5
  108. Format : ASS
  109. Codec ID : S_TEXT/ASS
  110. Codec ID/Info : Advanced Sub Station Alpha
  111. Compression mode : Lossless
  112. Title : Spanish
  113. Language : Spanish
  114. Default : No
  115. Forced : No
  116. Statistics Tags Issue : no_variable_data 1970-01-01 00:00:00 / no_variable_data 2010-02-22 21:41:29 / UTC 2018-01-22 08:05:37
  117. FromStats_BitRate : 89
  118. FromStats_Duration : 00:23:45.680000000
  119. FromStats_FrameCount : 303
  120. FromStats_StreamSize : 15989
  121.  
  122. Text #4
  123. ID : 6
  124. Format : ASS
  125. Codec ID : S_TEXT/ASS
  126. Codec ID/Info : Advanced Sub Station Alpha
  127. Compression mode : Lossless
  128. Title : German
  129. Language : German
  130. Default : No
  131. Forced : No
  132. Statistics Tags Issue : no_variable_data 1970-01-01 00:00:00 / no_variable_data 2010-02-22 21:41:29 / UTC 2018-01-22 08:05:37
  133. FromStats_BitRate : 89
  134. FromStats_Duration : 00:23:50.930000000
  135. FromStats_FrameCount : 301
  136. FromStats_StreamSize : 15940
  137.  
  138. Text #5
  139. ID : 7
  140. Format : ASS
  141. Codec ID : S_TEXT/ASS
  142. Codec ID/Info : Advanced Sub Station Alpha
  143. Compression mode : Lossless
  144. Title : Italian
  145. Language : Italian
  146. Default : No
  147. Forced : No
  148. Statistics Tags Issue : no_variable_data 1970-01-01 00:00:00 / no_variable_data 2010-02-22 21:41:29 / UTC 2018-01-22 08:05:37
  149. FromStats_BitRate : 85
  150. FromStats_Duration : 00:23:50.720000000
  151. FromStats_FrameCount : 296
  152. FromStats_StreamSize : 15316
RAW Paste Data