Advertisement
Guest User

Untitled

a guest
Jan 6th, 2022
118
Never
Not a member of Pastebin yet? Sign Up, it unlocks many cool features!
  1. General
  2. Unique ID : 52313641073771779142135547024738597329 (0x275B3DA40BB9C4C9EE0EC71E993FB9D1)
  3. Complete name : C:\Video\The.Last.Duel.2021.BDREMUX.2160p.HDR.DVP8.seleZen.mkv
  4. Format : Matroska
  5. Format version : Version 4
  6. File size : 52.5 GiB
  7. Duration : 2 h 32 min
  8. Overall bit rate mode : Variable
  9. Overall bit rate : 49.1 Mb/s
  10. Movie name : The Last Duel 2021 from seleZen
  11. Encoded date : UTC 2022-01-06 22:21:44
  12. Writing application : mkvmerge v59.0.0 ('Shining Star') 64-bit
  13. Writing library : libebml v1.4.2 + libmatroska v1.6.4
  14.  
  15. Video
  16. ID : 1
  17. Format : HEVC
  18. Format/Info : High Efficiency Video Coding
  19. Format profile : Main 10@L5.1@High
  20. HDR format : Dolby Vision, Version 1.0, dvhe.08.06, BL+RPU, HDR10 compatible / SMPTE ST 2086, HDR10 compatible
  21. Codec ID : V_MPEGH/ISO/HEVC
  22. Duration : 2 h 32 min
  23. Bit rate : 43.6 Mb/s
  24. Width : 3 840 pixels
  25. Height : 2 160 pixels
  26. Display aspect ratio : 16:9
  27. Frame rate mode : Constant
  28. Frame rate : 23.976 (24000/1001) FPS
  29. Color space : YUV
  30. Chroma subsampling : 4:2:0 (Type 2)
  31. Bit depth : 10 bits
  32. Bits/(Pixel*Frame) : 0.219
  33. Stream size : 46.5 GiB (89%)
  34. Language : English
  35. Default : Yes
  36. Forced : No
  37. Color range : Limited
  38. Color primaries : BT.2020
  39. Transfer characteristics : PQ
  40. Matrix coefficients : BT.2020 non-constant
  41. Mastering display color pri : Display P3
  42. Mastering display luminance : min: 0.0050 cd/m2, max: 1000 cd/m2
  43.  
  44. Audio #1
  45. ID : 2
  46. Format : AC-3
  47. Format/Info : Audio Coding 3
  48. Commercial name : Dolby Digital
  49. Codec ID : A_AC3
  50. Duration : 2 h 32 min
  51. Bit rate mode : Constant
  52. Bit rate : 448 kb/s
  53. Channel(s) : 6 channels
  54. Channel layout : L R C LFE Ls Rs
  55. Sampling rate : 48.0 kHz
  56. Frame rate : 31.250 FPS (1536 SPF)
  57. Compression mode : Lossy
  58. Stream size : 490 MiB (1%)
  59. Title : Dub [Nevafilm]
  60. Language : Russian
  61. Service kind : Complete Main
  62. Default : Yes
  63. Forced : Yes
  64.  
  65. Audio #2
  66. ID : 3
  67. ID in the original source m : 4352 (0x1100)
  68. Format : MLP FBA 16-ch
  69. Format/Info : Meridian Lossless Packing FBA with 16-channel presentation
  70. Commercial name : Dolby TrueHD with Dolby Atmos
  71. Codec ID : A_TRUEHD
  72. Duration : 2 h 32 min
  73. Bit rate mode : Variable
  74. Bit rate : 4 446 kb/s
  75. Maximum bit rate : 8 448 kb/s
  76. Channel(s) : 8 channels
  77. Channel layout : L R C LFE Ls Rs Lb Rb
  78. Sampling rate : 48.0 kHz
  79. Frame rate : 1 200.000 FPS (40 SPF)
  80. Compression mode : Lossless
  81. Stream size : 4.74 GiB (9%)
  82. Title : Original
  83. Language : English
  84. Default : No
  85. Forced : No
  86. Original source medium : Blu-ray
  87. Number of dynamic objects : 13
  88. Bed channel count : 1 channel
  89. Bed channel configuration : LFE
  90.  
  91. Audio #3
  92. ID : 4
  93. ID in the original source m : 4352 (0x1100)
  94. Format : AC-3
  95. Format/Info : Audio Coding 3
  96. Commercial name : Dolby Digital
  97. Codec ID : A_AC3
  98. Duration : 2 h 32 min
  99. Bit rate mode : Constant
  100. Bit rate : 640 kb/s
  101. Channel(s) : 6 channels
  102. Channel layout : L R C LFE Ls Rs
  103. Sampling rate : 48.0 kHz
  104. Frame rate : 31.250 FPS (1536 SPF)
  105. Compression mode : Lossy
  106. Stream size : 699 MiB (1%)
  107. Language : English
  108. Service kind : Complete Main
  109. Default : No
  110. Forced : No
  111. Original source medium : Blu-ray
  112.  
  113. Text #1
  114. ID : 5
  115. Format : UTF-8
  116. Codec ID : S_TEXT/UTF8
  117. Codec ID/Info : UTF-8 Plain Text
  118. Duration : 2 h 22 min
  119. Bit rate : 1 b/s
  120. Count of elements : 35
  121. Stream size : 1.62 KiB (0%)
  122. Title : Forced
  123. Language : Russian
  124. Default : No
  125. Forced : No
  126.  
  127. Text #2
  128. ID : 6
  129. Format : UTF-8
  130. Codec ID : S_TEXT/UTF8
  131. Codec ID/Info : UTF-8 Plain Text
  132. Duration : 2 h 22 min
  133. Bit rate : 79 b/s
  134. Count of elements : 1652
  135. Stream size : 83.1 KiB (0%)
  136. Title : Full
  137. Language : Russian
  138. Default : No
  139. Forced : No
  140.  
  141. Text #3
  142. ID : 7
  143. Format : UTF-8
  144. Codec ID : S_TEXT/UTF8
  145. Codec ID/Info : UTF-8 Plain Text
  146. Duration : 23 s 273 ms
  147. Bit rate : 49 b/s
  148. Count of elements : 6
  149. Stream size : 143 Bytes (0%)
  150. Title : Forced
  151. Language : English
  152. Default : No
  153. Forced : No
  154.  
  155. Text #4
  156. ID : 8
  157. Format : UTF-8
  158. Codec ID : S_TEXT/UTF8
  159. Codec ID/Info : UTF-8 Plain Text
  160. Duration : 2 h 22 min
  161. Bit rate : 47 b/s
  162. Count of elements : 1714
  163. Stream size : 49.6 KiB (0%)
  164. Title : Full
  165. Language : English
  166. Default : No
  167. Forced : No
  168.  
  169. Text #5
  170. ID : 9
  171. Format : UTF-8
  172. Codec ID : S_TEXT/UTF8
  173. Codec ID/Info : UTF-8 Plain Text
  174. Duration : 2 h 28 min
  175. Bit rate : 56 b/s
  176. Count of elements : 2168
  177. Stream size : 61.1 KiB (0%)
  178. Title : SDH
  179. Language : English
  180. Default : No
  181. Forced : No
  182.  
  183. Menu
  184. 00:00:00.000 : Chapter 01
  185. 00:05:02.051 : Chapter 02
  186. 00:09:42.456 : Chapter 03
  187. 00:17:43.645 : Chapter 04
  188. 00:25:59.933 : Chapter 05
  189. 00:33:25.294 : Chapter 06
  190. 00:38:51.370 : Chapter 07
  191. 00:42:34.593 : Chapter 08
  192. 00:54:23.510 : Chapter 09
  193. 01:05:52.490 : Chapter 10
  194. 01:17:07.456 : Chapter 11
  195. 01:25:24.702 : Chapter 12
  196. 01:32:50.273 : Chapter 13
  197. 01:40:17.177 : Chapter 14
  198. 01:52:06.720 : Chapter 15
  199. 02:05:28.521 : Chapter 16
  200. 02:22:25.537 : Chapter 17
  201.  
  202.  
Advertisement
Advertisement
Advertisement
RAW Paste Data Copied
Advertisement