SHARE
TWEET

Untitled

Secasa Aug 11th, 2017 5 Never
Not a member of Pastebin yet? Sign Up, it unlocks many cool features!
  1. Format                                   : Matroska
  2. Format version                           : Version 4 / Version 2
  3. File size                                : 8.34 GiB
  4. Duration                                 : 1h 49mn
  5. Overall bit rate                         : 10.9 Mbps
  6. Encoded date                             : UTC 2013-12-17 19:02:31
  7. Writing application                      : mkvmerge v6.5.0 ('Isn't she lovely') built on Oct 19 2013 21:03:40
  8. Writing library                          : libebml v1.3.0 + libmatroska v1.4.1
  9.  
  10. Video
  11. ID                                       : 1
  12. Format                                   : AVC
  13. Format/Info                              : Advanced Video Codec
  14. Format profile                           : High@L4.1
  15. Format settings, CABAC                   : Yes
  16. Format settings, ReFrames                : 5 frames
  17. Codec ID                                 : V_MPEG4/ISO/AVC
  18. Duration                                 : 1h 49mn
  19. Bit rate                                 : 9 262 Kbps
  20. Width                                    : 1 488 pixels
  21. Height                                   : 1 080 pixels
  22. Display aspect ratio                     : 1.378
  23. Frame rate mode                          : Constant
  24. Frame rate                               : 23.976 fps
  25. Color space                              : YUV
  26. Chroma subsampling                       : 4:2:0
  27. Bit depth                                : 8 bits
  28. Scan type                                : Progressive
  29. Bits/(Pixel*Frame)                       : 0.240
  30. Stream size                              : 6.90 GiB (83%)
  31. Writing library                          : x264 core 138 r2358 9e941d1
  32. Encoding settings                        : cabac=1 / ref=5 / deblock=1:-3:-3 / analyse=0x3:0x113 / me=umh / subme=8 / psy=1 / psy_rd=1.00:0.00 / mixed_ref=1 / me_range=16 / chroma_me=1 / trellis=1 / 8x8dct=1 / cqm=0 / deadzone=21,11 / fast_pskip=1 / chroma_qp_offset=-2 / threads=12 / lookahead_threads=2 / sliced_threads=0 / nr=0 / decimate=1 / interlaced=0 / bluray_compat=0 / constrained_intra=0 / bframes=3 / b_pyramid=2 / b_adapt=2 / b_bias=0 / direct=3 / weightb=1 / open_gop=0 / weightp=2 / keyint=240 / keyint_min=24 / scenecut=40 / intra_refresh=0 / rc_lookahead=50 / rc=2pass / mbtree=1 / bitrate=9262 / ratetol=1.0 / qcomp=0.60 / qpmin=0 / qpmax=69 / qpstep=4 / cplxblur=20.0 / qblur=0.5 / ip_ratio=1.40 / aq=1:1.00
  33. Language                                 : English
  34. Default                                  : Yes
  35. Forced                                   : No
  36.  
  37. Audio #1
  38. ID                                       : 2
  39. Format                                   : DTS
  40. Format/Info                              : Digital Theater Systems
  41. Mode                                     : 16
  42. Format settings, Endianness              : Big
  43. Codec ID                                 : A_DTS
  44. Duration                                 : 1h 49mn
  45. Bit rate mode                            : Constant
  46. Bit rate                                 : 768 Kbps
  47. Channel count                            : 1 channel
  48. Channel positions                        : Front: C
  49. Sampling rate                            : 48.0 KHz
  50. Bit depth                                : 24 bits
  51. Compression mode                         : Lossy
  52. Stream size                              : 600 MiB (7%)
  53. Title                                    : DTS English
  54. Language                                 : English
  55. Default                                  : No
  56. Forced                                   : No
  57.  
  58. Audio #2
  59. ID                                       : 5
  60. Format                                   : AC-3
  61. Format/Info                              : Audio Coding 3
  62. Mode extension                           : CM (complete main)
  63. Format settings, Endianness              : Big
  64. Codec ID                                 : A_AC3
  65. Duration                                 : 1h 49mn
  66. Bit rate mode                            : Constant
  67. Bit rate                                 : 448 Kbps
  68. Channel count                            : 1 channel
  69. Channel positions                        : Front: C
  70. Sampling rate                            : 48.0 KHz
  71. Bit depth                                : 16 bits
  72. Compression mode                         : Lossy
  73. Stream size                              : 350 MiB (4%)
  74. Title                                    : AC3 English
  75. Language                                 : English
  76. Default                                  : No
  77. Forced                                   : No
  78.  
  79. Audio #3
  80. ID                                       : 7
  81. Format                                   : AC-3
  82. Format/Info                              : Audio Coding 3
  83. Mode extension                           : CM (complete main)
  84. Format settings, Endianness              : Big
  85. Codec ID                                 : A_AC3
  86. Duration                                 : 1h 49mn
  87. Bit rate mode                            : Constant
  88. Bit rate                                 : 448 Kbps
  89. Channel count                            : 2 channels
  90. Channel positions                        : Front: L R
  91. Sampling rate                            : 48.0 KHz
  92. Bit depth                                : 16 bits
  93. Compression mode                         : Lossy
  94. Stream size                              : 350 MiB (4%)
  95. Title                                    : AC3 Spanish
  96. Language                                 : Spanish
  97. Default                                  : Yes
  98. Forced                                   : No
  99.  
  100. Text #1
  101. ID                                       : 3
  102. Format                                   : UTF-8
  103. Codec ID                                 : S_TEXT/UTF8
  104. Codec ID/Info                            : UTF-8 Plain Text
  105. Title                                    : SDH
  106. Language                                 : English
  107. Default                                  : No
  108. Forced                                   : No
  109.  
  110. Text #2
  111. ID                                       : 4
  112. Format                                   : UTF-8
  113. Codec ID                                 : S_TEXT/UTF8
  114. Codec ID/Info                            : UTF-8 Plain Text
  115. Language                                 : English
  116. Default                                  : No
  117. Forced                                   : No
  118.  
  119. Text #3
  120. ID                                       : 6
  121. Format                                   : UTF-8
  122. Codec ID                                 : S_TEXT/UTF8
  123. Codec ID/Info                            : UTF-8 Plain Text
  124. Language                                 : Spanish
  125. Default                                  : No
  126. Forced                                   : No
  127.  
  128. Menu
  129. 00:00:00.000                             : en:00:00:00.000
  130. 00:01:25.085                             : en:00:01:25.085
  131. 00:10:05.063                             : en:00:10:05.063
  132. 00:16:22.899                             : en:00:16:22.899
  133. 00:23:15.227                             : en:00:23:15.227
  134. 00:30:55.479                             : en:00:30:55.479
  135. 00:40:37.352                             : en:00:40:37.352
  136. 00:46:19.068                             : en:00:46:19.068
  137. 00:50:52.841                             : en:00:50:52.841
  138. 01:00:30.043                             : en:01:00:30.043
  139. 01:06:32.739                             : en:01:06:32.739
  140. 01:22:48.630                             : en:01:22:48.630
  141. 01:26:40.153                             : en:01:26:40.153
  142. 01:35:04.741                             : en:01:35:04.741
  143. 01:39:25.710                             : en:01:39:25.710
  144. 01:45:35.037                             : en:01:45:35.037
RAW Paste Data
Pastebin PRO Autumn Special!
Get 40% OFF on Pastebin PRO accounts!
Top