iMN0

Friends.with.Kids.2011.1080p.Bluray.DTS.x264-DON.mkv

Jul 17th, 2021
55
Never
Not a member of Pastebin yet? Sign Up, it unlocks many cool features!
  1. General
  2. Unique ID : 253192412915811214739345753700521905140 (0xBE7B15C0C407D624805FF6FA35CE8BF4)
  3. Complete name : Friends.with.Kids.2011.1080p.Bluray.DTS.x264-DON.mkv
  4. Format : Matroska
  5. Format version : Version 2
  6. File size : 10.3 GiB
  7. Duration : 1 h 47 min
  8. Overall bit rate : 13.8 Mb/s
  9. Encoded date : UTC 2012-07-17 15:48:01
  10. Writing application : mkvmerge v5.7.0 ('The Whirlwind') built on Jul 8 2012 20:08:51
  11. Writing library : libebml v1.2.3 + libmatroska v1.3.0
  12.  
  13. Video
  14. ID : 1
  15. Format : AVC
  16. Format/Info : Advanced Video Codec
  17. Format profile : High@L4.1
  18. Format settings : CABAC / 4 Ref Frames
  19. Format settings, CABAC : Yes
  20. Format settings, Reference frames : 4 frames
  21. Codec ID : V_MPEG4/ISO/AVC
  22. Duration : 1 h 47 min
  23. Bit rate : 12.0 Mb/s
  24. Width : 1 920 pixels
  25. Height : 1 080 pixels
  26. Display aspect ratio : 16:9
  27. Frame rate mode : Constant
  28. Frame rate : 23.976 (24000/1001) FPS
  29. Color space : YUV
  30. Chroma subsampling : 4:2:0
  31. Bit depth : 8 bits
  32. Scan type : Progressive
  33. Bits/(Pixel*Frame) : 0.241
  34. Stream size : 8.98 GiB (87%)
  35. Writing library : x264 core 116 r2057 0ba8a9c
  36. Encoding settings : cabac=1 / ref=4 / deblock=1:-3:-3 / analyse=0x3:0x133 / me=umh / subme=10 / psy=1 / psy_rd=1.00:0.00 / mixed_ref=1 / me_range=32 / chroma_me=1 / trellis=2 / 8x8dct=1 / cqm=0 / deadzone=21,11 / fast_pskip=0 / chroma_qp_offset=-2 / threads=18 / sliced_threads=0 / nr=0 / decimate=0 / interlaced=0 / bluray_compat=0 / constrained_intra=0 / bframes=7 / b_pyramid=2 / b_adapt=2 / b_bias=0 / direct=3 / weightb=1 / open_gop=0 / weightp=2 / keyint=250 / keyint_min=23 / scenecut=40 / intra_refresh=0 / rc_lookahead=40 / rc=crf / mbtree=0 / crf=18.7 / qcomp=0.65 / qpmin=0 / qpmax=40 / qpstep=4 / vbv_maxrate=50000 / vbv_bufsize=50000 / crf_max=0.0 / nal_hrd=none / ip_ratio=1.25 / pb_ratio=1.25 / aq=1:0.65
  37. Language : English
  38. Default : Yes
  39. Forced : No
  40.  
  41. Audio
  42. ID : 2
  43. Format : DTS
  44. Format/Info : Digital Theater Systems
  45. Codec ID : A_DTS
  46. Duration : 1 h 47 min
  47. Bit rate mode : Constant
  48. Bit rate : 1 509 kb/s
  49. Channel(s) : 6 channels
  50. Channel layout : C L R Ls Rs LFE
  51. Sampling rate : 48.0 kHz
  52. Frame rate : 93.750 FPS (512 SPF)
  53. Bit depth : 24 bits
  54. Compression mode : Lossy
  55. Stream size : 1.13 GiB (11%)
  56. Language : English
  57. Default : Yes
  58. Forced : No
  59.  
  60. Text #1
  61. ID : 3
  62. Format : UTF-8
  63. Codec ID : S_TEXT/UTF8
  64. Codec ID/Info : UTF-8 Plain Text
  65. Language : English
  66. Default : No
  67. Forced : No
  68.  
  69. Text #2
  70. ID : 4
  71. Format : UTF-8
  72. Codec ID : S_TEXT/UTF8
  73. Codec ID/Info : UTF-8 Plain Text
  74. Language : Portuguese
  75. Default : No
  76. Forced : No
  77.  
  78. Menu
  79. 00:00:00.000 : en:00:00:00.000
  80. 00:07:01.630 : en:00:07:01.630
  81. 00:13:04.325 : en:00:13:04.325
  82. 00:18:33.487 : en:00:18:33.487
  83. 00:26:57.825 : en:00:26:57.825
  84. 00:29:57.421 : en:00:29:57.421
  85. 00:35:33.965 : en:00:35:33.965
  86. 00:42:49.734 : en:00:42:49.734
  87. 00:47:19.086 : en:00:47:19.086
  88. 00:53:35.546 : en:00:53:35.546
  89. 01:01:07.080 : en:01:01:07.080
  90. 01:07:15.031 : en:01:07:15.031
  91. 01:16:22.787 : en:01:16:22.787
  92. 01:19:17.378 : en:01:19:17.378
  93. 01:29:45.213 : en:01:29:45.213
  94. 01:42:42.156 : en:01:42:42.156
RAW Paste Data