iMN0

Summer.of.Soul.2021.1080p.HULU.WEB-DL.DDP5.1.H.264-TEPES.mkv

Jul 1st, 2021
185
Never
Not a member of Pastebin yet? Sign Up, it unlocks many cool features!
  1. General
  2. Unique ID : 141860053911833247148501684845423339746 (0x6AB940A8B28BC15425C17E59C3D7A8E2)
  3. Complete name : Summer.of.Soul.2021.1080p.HULU.WEB-DL.DDP5.1.H.264-TEPES.mkv
  4. Format : Matroska
  5. Format version : Version 4
  6. File size : 4.83 GiB
  7. Duration : 1 h 57 min
  8. Overall bit rate : 5 878 kb/s
  9. Writing application : mkvmerge v58.0.0 ('Supper's Ready') 64-bit
  10. Writing library : libebml v1.4.2 + libmatroska v1.6.4
  11.  
  12. Video
  13. ID : 1
  14. Format : AVC
  15. Format/Info : Advanced Video Codec
  16. Format profile : High@L4
  17. Format settings : CABAC / 4 Ref Frames
  18. Format settings, CABAC : Yes
  19. Format settings, Reference frames : 4 frames
  20. Codec ID : V_MPEG4/ISO/AVC
  21. Duration : 1 h 57 min
  22. Bit rate : 5 506 kb/s
  23. Width : 1 920 pixels
  24. Height : 1 080 pixels
  25. Display aspect ratio : 16:9
  26. Frame rate mode : Constant
  27. Frame rate : 23.976 (24000/1001) FPS
  28. Color space : YUV
  29. Chroma subsampling : 4:2:0
  30. Bit depth : 8 bits
  31. Scan type : Progressive
  32. Bits/(Pixel*Frame) : 0.111
  33. Stream size : 4.52 GiB (94%)
  34. Default : Yes
  35. Forced : No
  36.  
  37. Audio
  38. ID : 2
  39. Format : E-AC-3
  40. Format/Info : Enhanced AC-3
  41. Commercial name : Dolby Digital Plus
  42. Codec ID : A_EAC3
  43. Duration : 1 h 57 min
  44. Bit rate mode : Constant
  45. Bit rate : 256 kb/s
  46. Channel(s) : 6 channels
  47. Channel layout : L R C LFE Ls Rs
  48. Sampling rate : 48.0 kHz
  49. Frame rate : 31.250 FPS (1536 SPF)
  50. Compression mode : Lossy
  51. Stream size : 215 MiB (4%)
  52. Language : English
  53. Service kind : Complete Main
  54. Default : Yes
  55. Forced : No
  56.  
  57. Text #1
  58. ID : 3
  59. Format : UTF-8
  60. Codec ID : S_TEXT/UTF8
  61. Codec ID/Info : UTF-8 Plain Text
  62. Title : English
  63. Language : English
  64. Default : No
  65. Forced : No
  66.  
  67. Text #2
  68. ID : 4
  69. Format : UTF-8
  70. Codec ID : S_TEXT/UTF8
  71. Codec ID/Info : UTF-8 Plain Text
  72. Title : Español
  73. Language : Spanish
  74. Default : No
  75. Forced : No
RAW Paste Data