SHARE
TWEET

The.Day.After.1983.Theatrical.Cut.1080p.Blu-ray.Remux.AVC.DTS-HD.MA.2.0.-.KRaLiMaRKo

a guest Jun 17th, 2019 25 Never
Not a member of Pastebin yet? Sign Up, it unlocks many cool features!
  1. General
  2. Complete name                            : The.Day.After.1983.Theatrical.Cut.1080p.Blu-ray.Remux.AVC.DTS-HD.MA.2.0.-.KRaLiMaRKo.mkv
  3. Format                                   : Matroska
  4. Format version                           : Version 4
  5. File size                                : 19.9 GiB
  6. Duration                                 : 2 h 7 min
  7. Overall bit rate mode                    : Variable
  8. Overall bit rate                         : 22.4 Mb/s
  9. Encoded date                             : UTC 2019-02-05 18:10:02
  10. Writing application                      : mkvmerge v30.1.0 ('Forever And More') 64-bit
  11. Writing library                          : libebml v1.3.6 + libmatroska v1.4.9
  12.  
  13. Video
  14. ID                                       : 1
  15. Format                                   : AVC
  16. Format/Info                              : Advanced Video Codec
  17. Format profile                           : High@L4.1
  18. Format settings                          : CABAC / 3 Ref Frames
  19. Format settings, CABAC                   : Yes
  20. Format settings, Reference frames        : 3 frames
  21. Format settings, GOP                     : M=3, N=12
  22. Codec ID                                 : V_MPEG4/ISO/AVC
  23. Duration                                 : 2 h 7 min
  24. Bit rate mode                            : Variable
  25. Bit rate                                 : 20.8 Mb/s
  26. Maximum bit rate                         : 32.3 Mb/s
  27. Width                                    : 1 920 pixels
  28. Height                                   : 1 080 pixels
  29. Display aspect ratio                     : 16:9
  30. Frame rate mode                          : Constant
  31. Frame rate                               : 23.976 (24000/1001) FPS
  32. Standard                                 : NTSC
  33. Color space                              : YUV
  34. Chroma subsampling                       : 4:2:0
  35. Bit depth                                : 8 bits
  36. Scan type                                : Progressive
  37. Bits/(Pixel*Frame)                       : 0.419
  38. Stream size                              : 18.5 GiB (93%)
  39. Language                                 : English
  40. Default                                  : Yes
  41. Forced                                   : No
  42. Color range                              : Limited
  43. Color primaries                          : BT.709
  44. Transfer characteristics                 : BT.709
  45. Matrix coefficients                      : BT.709
  46.  
  47. Audio
  48. ID                                       : 2
  49. Format                                   : DTS XLL
  50. Format/Info                              : Digital Theater Systems
  51. Commercial name                          : DTS-HD Master Audio
  52. Codec ID                                 : A_DTS
  53. Duration                                 : 2 h 7 min
  54. Bit rate mode                            : Variable
  55. Bit rate                                 : 1 560 kb/s
  56. Channel(s)                               : 2 channels
  57. Channel layout                           : L R
  58. Sampling rate                            : 48.0 kHz
  59. Frame rate                               : 93.750 FPS (512 SPF)
  60. Bit depth                                : 16 bits
  61. Compression mode                         : Lossless
  62. Stream size                              : 1.38 GiB (7%)
  63. Language                                 : English
  64. Default                                  : Yes
  65. Forced                                   : No
  66.  
  67. Text
  68. ID                                       : 3
  69. Format                                   : PGS
  70. Muxing mode                              : zlib
  71. Codec ID                                 : S_HDMV/PGS
  72. Codec ID/Info                            : Picture based subtitle format used on BDs/HD-DVDs
  73. Duration                                 : 2 h 4 min
  74. Bit rate                                 : 24.8 kb/s
  75. Count of elements                        : 2937
  76. Stream size                              : 22.0 MiB (0%)
  77. Language                                 : English
  78. Default                                  : No
  79. Forced                                   : No
  80.  
  81. Menu
  82. 00:00:00.000                             : :Chapter 01
  83. 00:14:25.406                             : :Chapter 02
  84. 00:31:39.648                             : :Chapter 03
  85. 00:46:51.100                             : :Chapter 04
  86. 01:01:42.949                             : :Chapter 05
  87. 01:15:12.383                             : :Chapter 06
  88. 01:30:17.120                             : :Chapter 07
  89. 01:50:07.142                             : :Chapter 08
RAW Paste Data
We use cookies for various purposes including analytics. By continuing to use Pastebin, you agree to our use of cookies as described in the Cookies Policy. OK, I Understand
Not a member of Pastebin yet?
Sign Up, it unlocks many cool features!
 
Top