iMN0

Scorned.1993.1080p.BluRay.x264.FLAC2.0-PiF4.mkv

Jul 15th, 2021
136
Never
Not a member of Pastebin yet? Sign Up, it unlocks many cool features!
  1. General
  2. Unique ID : 313471855254054078971740505895564977675 (0xEBD47BB7F3CE7AD27347C5C5EE47A60B)
  3. Complete name : Scorned.1993.1080p.BluRay.x264.FLAC2.0-PiF4.mkv
  4. Format : Matroska
  5. Format version : Version 4
  6. File size : 7.74 GiB
  7. Duration : 1 h 42 min
  8. Overall bit rate mode : Variable
  9. Overall bit rate : 10.8 Mb/s
  10. Encoded date : UTC 2018-07-23 15:32:41
  11. Writing application : mkvmerge v24.0.0 ('Beyond The Pale') 64-bit
  12. Writing library : libebml v1.3.6 + libmatroska v1.4.9
  13.  
  14. Video
  15. ID : 1
  16. Format : AVC
  17. Format/Info : Advanced Video Codec
  18. Format profile : High@L4.1
  19. Format settings : CABAC / 4 Ref Frames
  20. Format settings, CABAC : Yes
  21. Format settings, Reference frames : 4 frames
  22. Codec ID : V_MPEG4/ISO/AVC
  23. Duration : 1 h 42 min
  24. Bit rate : 10.4 Mb/s
  25. Width : 1 916 pixels
  26. Height : 1 080 pixels
  27. Display aspect ratio : 16:9
  28. Frame rate mode : Constant
  29. Frame rate : 23.976 (24000/1001) FPS
  30. Color space : YUV
  31. Chroma subsampling : 4:2:0
  32. Bit depth : 8 bits
  33. Scan type : Progressive
  34. Bits/(Pixel*Frame) : 0.210
  35. Stream size : 7.45 GiB (96%)
  36. Writing library : x264 core 148 r2708 86b7198
  37. Encoding settings : cabac=1 / ref=4 / deblock=1:-3:-3 / analyse=0x3:0x133 / me=umh / subme=10 / psy=1 / psy_rd=1.00:0.00 / mixed_ref=1 / me_range=32 / chroma_me=1 / trellis=2 / 8x8dct=1 / cqm=0 / deadzone=21,11 / fast_pskip=0 / chroma_qp_offset=-2 / threads=30 / lookahead_threads=7 / sliced_threads=0 / nr=0 / decimate=0 / interlaced=0 / bluray_compat=0 / constrained_intra=0 / bframes=16 / b_pyramid=2 / b_adapt=2 / b_bias=0 / direct=3 / weightb=1 / open_gop=0 / weightp=2 / keyint=240 / keyint_min=24 / scenecut=40 / intra_refresh=0 / rc_lookahead=60 / rc=crf / mbtree=0 / crf=19.5 / qcomp=0.60 / qpmin=0 / qpmax=69 / qpstep=4 / vbv_maxrate=62500 / vbv_bufsize=78125 / crf_max=0.0 / nal_hrd=none / filler=0 / ip_ratio=1.40 / pb_ratio=1.30 / aq=2:1.00
  38. Default : Yes
  39. Forced : No
  40. Color range : Limited
  41. Color primaries : BT.709
  42. Transfer characteristics : BT.709
  43. Matrix coefficients : BT.709
  44.  
  45. Audio
  46. ID : 2
  47. Format : FLAC
  48. Format/Info : Free Lossless Audio Codec
  49. Codec ID : A_FLAC
  50. Duration : 1 h 42 min
  51. Bit rate mode : Variable
  52. Bit rate : 373 kb/s
  53. Channel(s) : 2 channels
  54. Channel layout : L R
  55. Sampling rate : 48.0 kHz
  56. Frame rate : 11.719 FPS (4096 SPF)
  57. Bit depth : 16 bits
  58. Compression mode : Lossless
  59. Stream size : 274 MiB (3%)
  60. Writing library : libFLAC 1.2.1 (UTC 2007-09-17)
  61. Language : English
  62. Default : Yes
  63. Forced : No
  64.  
  65. Text #1
  66. ID : 3
  67. Format : PGS
  68. Muxing mode : zlib
  69. Codec ID : S_HDMV/PGS
  70. Codec ID/Info : Picture based subtitle format used on BDs/HD-DVDs
  71. Duration : 1 h 37 min
  72. Bit rate : 22.2 kb/s
  73. Count of elements : 1691
  74. Stream size : 15.5 MiB (0%)
  75. Language : German
  76. Default : No
  77. Forced : No
  78.  
  79. Text #2
  80. ID : 4
  81. Format : PGS
  82. Muxing mode : zlib
  83. Codec ID : S_HDMV/PGS
  84. Codec ID/Info : Picture based subtitle format used on BDs/HD-DVDs
  85. Duration : 1 h 37 min
  86. Bit rate : 22.2 kb/s
  87. Count of elements : 1794
  88. Stream size : 15.4 MiB (0%)
  89. Language : English
  90. Default : No
  91. Forced : No
  92.  
  93. Menu
  94. 00:00:00.000 : :Chapter 1
  95. 00:08:24.337 : :Chapter 2
  96. 00:17:22.333 : :Chapter 3
  97. 00:24:40.354 : :Chapter 4
  98. 00:34:35.574 : :Chapter 5
  99. 00:43:48.501 : :Chapter 6
  100. 00:52:05.372 : :Chapter 7
  101. 01:00:31.503 : :Chapter 8
  102. 01:08:05.999 : :Chapter 9
  103. 01:18:03.929 : :Chapter 10
  104. 01:25:36.131 : :Chapter 11
  105. 01:35:03.198 : :Chapter 12
RAW Paste Data