Guest User

Pet.Sematary.1989.REMASTERED.1080p.BluRay.X264-AMIABLE

a guest
May 24th, 2019
207
Never
Not a member of Pastebin yet? Sign Up, it unlocks many cool features!
  1. General
  2. Complete name                            : Pet.Sematary.1989.REMASTERED.1080p.BluRay.X264-AMIABLE.mkv
  3. Format                                   : Matroska
  4. Format version                           : Version 4
  5. File size                                : 10.9 GiB
  6. Duration                                 : 1 h 42 min
  7. Overall bit rate                         : 15.2 Mb/s
  8. Encoded date                             : UTC 2010-02-22 21:41:29
  9. Writing application                      : no_variable_data
  10. Writing library                          : no_variable_data
  11.  
  12. Video
  13. ID                                       : 1
  14. Format                                   : AVC
  15. Format/Info                              : Advanced Video Codec
  16. Format profile                           : High@L4.1
  17. Format settings                          : CABAC / 4 Ref Frames
  18. Format settings, CABAC                   : Yes
  19. Format settings, Reference frames        : 4 frames
  20. Codec ID                                 : V_MPEG4/ISO/AVC
  21. Duration                                 : 1 h 42 min
  22. Bit rate                                 : 13.7 Mb/s
  23. Width                                    : 1 920 pixels
  24. Height                                   : 1 080 pixels
  25. Display aspect ratio                     : 16:9
  26. Frame rate mode                          : Constant
  27. Frame rate                               : 23.976 (24000/1001) FPS
  28. Color space                              : YUV
  29. Chroma subsampling                       : 4:2:0
  30. Bit depth                                : 8 bits
  31. Scan type                                : Progressive
  32. Bits/(Pixel*Frame)                       : 0.276
  33. Stream size                              : 9.62 GiB (88%)
  34. Writing library                          : x264 core 157 r2969 d4099dd
  35. Encoding settings                        : cabac=1 / ref=4 / deblock=1:-3:-3 / analyse=0x3:0x133 / me=umh / subme=10 / psy=1 / psy_rd=1.15:0.00 / mixed_ref=1 / me_range=48 / chroma_me=1 / trellis=2 / 8x8dct=1 / cqm=0 / deadzone=21,11 / fast_pskip=0 / chroma_qp_offset=-2 / threads=24 / lookahead_threads=4 / sliced_threads=0 / nr=0 / decimate=0 / interlaced=0 / bluray_compat=0 / constrained_intra=0 / bframes=8 / b_pyramid=2 / b_adapt=2 / b_bias=0 / direct=3 / weightb=1 / open_gop=0 / weightp=2 / keyint=240 / keyint_min=24 / scenecut=40 / intra_refresh=0 / rc_lookahead=60 / rc=2pass / mbtree=1 / bitrate=13725 / ratetol=1.0 / qcomp=0.60 / qpmin=0 / qpmax=69 / qpstep=4 / cplxblur=20.0 / qblur=0.5 / ip_ratio=1.20 / aq=3:0.70
  36. Default                                  : Yes
  37. Forced                                   : No
  38. Statistics Tags Issue                    : no_variable_data 1970-01-01 00:00:00 / no_variable_data 2010-02-22 21:41:29
  39. FromStats_BitRate                        : 13715995
  40. FromStats_Duration                       : 01:42:42.699000000
  41. FromStats_FrameCount                     : 147757
  42. FromStats_StreamSize                     : 10565944299
  43.  
  44. Audio
  45. ID                                       : 2
  46. Format                                   : DTS
  47. Format/Info                              : Digital Theater Systems
  48. Codec ID                                 : A_DTS
  49. Duration                                 : 1 h 42 min
  50. Bit rate mode                            : Constant
  51. Bit rate                                 : 1 509 kb/s
  52. Channel(s)                               : 6 channels
  53. Channel layout                           : C L R Ls Rs LFE
  54. Sampling rate                            : 48.0 kHz
  55. Frame rate                               : 93.750 FPS (512 SPF)
  56. Bit depth                                : 24 bits
  57. Compression mode                         : Lossy
  58. Stream size                              : 1.08 GiB (10%)
  59. Language                                 : English
  60. Default                                  : Yes
  61. Forced                                   : No
  62. Statistics Tags Issue                    : no_variable_data 1970-01-01 00:00:00 / no_variable_data 2010-02-22 21:41:29
  63. FromStats_BitRate                        : 1508999
  64. FromStats_Duration                       : 01:42:42.699000000
  65. FromStats_FrameCount                     : 577753
  66. FromStats_StreamSize                     : 1162439036
  67.  
  68. Text #1
  69. ID                                       : 3
  70. Format                                   : UTF-8
  71. Codec ID                                 : S_TEXT/UTF8
  72. Codec ID/Info                            : UTF-8 Plain Text
  73. Language                                 : English
  74. Default                                  : No
  75. Forced                                   : No
  76. Statistics Tags Issue                    : no_variable_data 1970-01-01 00:00:00 / no_variable_data 2010-02-22 21:41:29
  77. FromStats_BitRate                        : 36
  78. FromStats_Duration                       : 01:38:52.176000000
  79. FromStats_FrameCount                     : 834
  80. FromStats_StreamSize                     : 27218
  81.  
  82. Text #2
  83. ID                                       : 4
  84. Format                                   : UTF-8
  85. Codec ID                                 : S_TEXT/UTF8
  86. Codec ID/Info                            : UTF-8 Plain Text
  87. Title                                    : SDH
  88. Language                                 : English
  89. Default                                  : No
  90. Forced                                   : No
  91. Statistics Tags Issue                    : no_variable_data 1970-01-01 00:00:00 / no_variable_data 2010-02-22 21:41:29
  92. FromStats_BitRate                        : 42
  93. FromStats_Duration                       : 01:39:15.032000000
  94. FromStats_FrameCount                     : 1048
  95. FromStats_StreamSize                     : 31705
  96.  
  97. Menu
  98. 00:00:00.000                             : en:Chapter 01
  99. 00:03:02.391                             : en:Chapter 02
  100. 00:09:56.095                             : en:Chapter 03
  101. 00:17:23.334                             : en:Chapter 04
  102. 00:25:05.462                             : en:Chapter 05
  103. 00:33:44.147                             : en:Chapter 06
  104. 00:40:48.738                             : en:Chapter 07
  105. 00:44:16.904                             : en:Chapter 08
  106. 00:47:36.729                             : en:Chapter 09
  107. 00:53:27.746                             : en:Chapter 10
  108. 01:00:07.145                             : en:Chapter 11
  109. 01:09:10.146                             : en:Chapter 12
  110. 01:16:43.307                             : en:Chapter 13
  111. 01:21:36.183                             : en:Chapter 14
  112. 01:26:31.269                             : en:Chapter 15
  113. 01:28:26.676                             : en:Chapter 16
  114. 01:30:18.455                             : en:Chapter 17
  115. 01:35:36.105                             : en:Chapter 18
  116. 01:39:34.135                             : en:Chapter 19
RAW Paste Data