SHARE
TWEET

Untitled

a guest Jul 17th, 2019 85 Never
Not a member of Pastebin yet? Sign Up, it unlocks many cool features!
  1. Format                      : Matroska
  2. Format version              : Version 4
  3. File size                   : 8.53 GiB
  4. Duration                    : 1 h 39 min
  5. Overall bit rate            : 12.2 Mb/s
  6. Encoded date                : UTC 2019-07-12 07:43:25
  7. Writing application         : mkvmerge v35.0.0 ('All The Love In The World') 64-bit
  8. Writing library             : libebml v1.3.9 + libmatroska v1.5.2
  9.  
  10. Video
  11. ID                          : 1
  12. Format                      : HEVC
  13. Format/Info                 : High Efficiency Video Coding
  14. Format profile              : Main 10@L4.1@High
  15. Codec ID                    : V_MPEGH/ISO/HEVC
  16. Duration                    : 1 h 39 min
  17. Bit rate                    : 10.2 Mb/s
  18. Width                       : 1 920 pixels
  19. Height                      : 802 pixels
  20. Display aspect ratio        : 2.40:1
  21. Frame rate mode             : Constant
  22. Frame rate                  : 23.976 (23976/1000) FPS
  23. Original frame rate         : 23.976 (24000/1001) FPS
  24. Color space                 : YUV
  25. Chroma subsampling          : 4:2:0
  26. Bit depth                   : 10 bits
  27. Bits/(Pixel*Frame)          : 0.277
  28. Stream size                 : 7.14 GiB (84%)
  29. Writing library             : x265 3.0_Au+25-39b35ea86283:[Windows][clang 8.0.0][64 bit] 10bit
  30. Encoding settings           : cpuid=1049583 / frame-threads=5 / numa-pools=4 / wpp / no-pmode / no-pme / no-psnr / no-ssim / log-level=3 / input-csp=1 / input-res=1920x802 / interlace=0 / total-frames=0 / level-idc=41 / high-tier=1 / uhd-bd=0 / ref=4 / allow-non-conformance / no-repeat-headers / annexb / no-aud / no-hrd / info / hash=0 / no-temporal-layers / open-gop / min-keyint=24 / keyint=240 / gop-lookahead=0 / bframes=4 / b-adapt=2 / b-pyramid / bframe-bias=0 / rc-lookahead=25 / lookahead-slices=4 / scenecut=40 / radl=0 / no-splice / no-intra-refresh / ctu=64 / min-cu-size=8 / rect / no-amp / max-tu-size=32 / tu-inter-depth=1 / tu-intra-depth=1 / limit-tu=0 / rdoq-level=2 / dynamic-rd=0.00 / no-ssim-rd / signhide / no-tskip / nr-intra=0 / nr-inter=0 / no-constrained-intra / strong-intra-smoothing / max-merge=3 / limit-refs=3 / limit-modes / me=3 / subme=4 / merange=57 / temporal-mvp / weightp / no-weightb / no-analyze-src-pics / deblock=-3:-3 / sao / no-sao-non-deblock / rd=4 / no-early-skip / rskip / no-fast-intra / no-tskip-fast / no-cu-lossless / no-b-intra / no-splitrd-skip / rdpenalty=0 / psy-rd=2.00 / psy-rdoq=1.00 / no-rd-refine / no-lossless / cbqpoffs=0 / crqpoffs=0 / rc=crf / crf=17.5 / qcomp=0.60 / qpstep=4 / stats-write=0 / stats-read=0 / vbv-maxrate=50000 / vbv-bufsize=50000 / vbv-init=0.9 / crf-max=0.0 / crf-min=0.0 / ipratio=1.40 / pbratio=1.30 / aq-mode=2 / aq-strength=1.00 / cutree / zone-count=0 / no-strict-cbr / qg-size=32 / no-rc-grain / qpmax=69 / qpmin=0 / no-const-vbv / sar=1 / overscan=0 / videoformat=5 / range=0 / colorprim=2 / transfer=2 / colormatrix=2 / chromaloc=0 / display-window=0 / max-cll=0,0 / min-luma=0 / max-luma=1023 / log2-max-poc-lsb=8 / vui-timing-info / vui-hrd-info / slices=1 / no-opt-qp-pps / no-opt-ref-list-length-pps / no-multi-pass-opt-rps / scenecut-bias=0.05 / no-opt-cu-delta-qp / no-aq-motion / no-hdr / no-hdr-opt / no-dhdr10-opt / no-idr-recovery-sei / analysis-reuse-level=5 / scale-factor=0 / refine-intra=0 / refine-inter=0 / refine-mv=0 / refine-ctu-distortion=0 / no-limit-sao / ctu-info=0 / no-lowpass-dct / refine-analysis-type=471099776 / copy-pic=1 / max-ausize-factor=1.0 / no-dynamic-refine / no-single-sei / no-hevc-aq / no-svt / qp-adaptation-range=1.00
  31. Language                    : English
  32. Default                     : Yes
  33. Forced                      : No
  34. Color range                 : Limited
  35.  
  36. Audio #1
  37. ID                          : 2
  38. Format                      : DTS
  39. Format/Info                 : Digital Theater Systems
  40. Codec ID                    : A_DTS
  41. Duration                    : 1 h 39 min
  42. Bit rate mode               : Constant
  43. Bit rate                    : 768 kb/s
  44. Channel(s)                  : 6 channels
  45. Channel layout              : C L R Ls Rs LFE
  46. Sampling rate               : 48.0 kHz
  47. Frame rate                  : 93.750 FPS (512 SPF)
  48. Bit depth                   : 24 bits
  49. Compression mode            : Lossy
  50. Stream size                 : 549 MiB (6%)
  51. Title                       : Dub [License]
  52. Language                    : Russian
  53. Default                     : Yes
  54. Forced                      : Yes
  55.  
  56. Audio #2
  57. ID                          : 3
  58. Format                      : AC-3
  59. Format/Info                 : Audio Coding 3
  60. Commercial name             : Dolby Digital
  61. Codec ID                    : A_AC3
  62. Duration                    : 1 h 39 min
  63. Bit rate mode               : Constant
  64. Bit rate                    : 448 kb/s
  65. Channel(s)                  : 6 channels
  66. Channel layout              : L R C LFE Ls Rs
  67. Sampling rate               : 48.0 kHz
  68. Frame rate                  : 31.250 FPS (1536 SPF)
  69. Bit depth                   : 16 bits
  70. Compression mode            : Lossy
  71. Stream size                 : 320 MiB (4%)
  72. Title                       : Dub [License]
  73. Language                    : Russian
  74. Service kind                : Complete Main
  75. Default                     : No
  76. Forced                      : No
  77.  
  78. Audio #3
  79. ID                          : 4
  80. Format                      : DTS
  81. Format/Info                 : Digital Theater Systems
  82. Codec ID                    : A_DTS
  83. Duration                    : 1 h 39 min
  84. Bit rate mode               : Constant
  85. Bit rate                    : 768 kb/s
  86. Channel(s)                  : 6 channels
  87. Channel layout              : C L R Ls Rs LFE
  88. Sampling rate               : 48.0 kHz
  89. Frame rate                  : 93.750 FPS (512 SPF)
  90. Bit depth                   : 16 bits
  91. Compression mode            : Lossy
  92. Stream size                 : 549 MiB (6%)
  93. Title                       : Original
  94. Language                    : English
  95. Default                     : No
  96. Forced                      : No
  97.  
  98. Text #1
  99. ID                          : 5
  100. Format                      : UTF-8
  101. Codec ID                    : S_TEXT/UTF8
  102. Codec ID/Info               : UTF-8 Plain Text
  103. Duration                    : 1 h 33 min
  104. Bit rate                    : 96 b/s
  105. Count of elements           : 1567
  106. Stream size                 : 66.3 KiB (0%)
  107. Title                       : full
  108. Language                    : Russian
  109. Default                     : No
  110. Forced                      : No
  111.  
  112. Text #2
  113. ID                          : 6
  114. Format                      : UTF-8
  115. Codec ID                    : S_TEXT/UTF8
  116. Codec ID/Info               : UTF-8 Plain Text
  117. Duration                    : 1 h 33 min
  118. Bit rate                    : 64 b/s
  119. Count of elements           : 1604
  120. Stream size                 : 43.9 KiB (0%)
  121. Title                       : full
  122. Language                    : English
  123. Default                     : No
  124. Forced                      : No
  125.  
  126. Text #3
  127. ID                          : 7
  128. Format                      : UTF-8
  129. Codec ID                    : S_TEXT/UTF8
  130. Codec ID/Info               : UTF-8 Plain Text
  131. Duration                    : 1 h 39 min
  132. Bit rate                    : 67 b/s
  133. Count of elements           : 1868
  134. Stream size                 : 49.5 KiB (0%)
  135. Title                       : SDH
  136. Language                    : English
  137. Default                     : No
  138. Forced                      : No
  139.  
  140. Menu
  141. 00:00:00.000                : en:Глава 01
  142. 00:07:42.253                : en:Глава 02
  143. 00:16:01.085                : en:Глава 03
  144. 00:21:16.066                : en:Глава 04
  145. 00:24:21.460                : en:Глава 05
  146. 00:28:44.890                : en:Глава 06
  147. 00:32:34.661                : en:Глава 07
  148. 00:37:15.817                : en:Глава 08
  149. 00:42:02.812                : en:Глава 09
  150. 00:45:35.107                : en:Глава 10
  151. 00:48:37.665                : en:Глава 11
  152. 00:54:27.347                : en:Глава 12
  153. 01:00:36.341                : en:Глава 13
  154. 01:06:24.314                : en:Глава 14
  155. 01:13:19.520                : en:Глава 15
  156. 01:17:47.079                : en:Глава 16
  157. 01:21:31.762                : en:Глава 17
  158. 01:27:36.084                : en:Глава 18
  159. 01:33:02.994                : en:Глава 19
  160. 01:35:05.700                : en:Глава 20
RAW Paste Data
We use cookies for various purposes including analytics. By continuing to use Pastebin, you agree to our use of cookies as described in the Cookies Policy. OK, I Understand
Not a member of Pastebin yet?
Sign Up, it unlocks many cool features!
 
Top