iMN0

Superfly.2018.BluRay.Remux.1080p.AVC.DTS-HD.MA.5.1-HDH.mkv

Sep 2nd, 2018
41
Never
Not a member of Pastebin yet? Sign Up, it unlocks many cool features!
  1. General
  2. Unique ID : 207043639478199077681483582805109877375 (0x9BC3278DBE90EFAF84B3D3311C33AA7F)
  3. Complete name : Superfly.2018.BluRay.Remux.1080p.AVC.DTS-HD.MA.5.1-HDH.mkv
  4. Format : Matroska
  5. Format version : Version 2
  6. File size : 18.0 GiB
  7. Duration : 1h 34mn
  8. Overall bit rate mode : Variable
  9. Overall bit rate : 27.3 Mbps
  10. Encoded date : UTC 2018-08-31 01:02:26
  11. Writing application : mkvmerge v8.5.2 ('Crosses') 32bit
  12. Writing library : libebml v1.3.3 + libmatroska v1.4.4
  13.  
  14. Video
  15. ID : 1
  16. Format : AVC
  17. Format/Info : Advanced Video Codec
  18. Format profile : High@L4.1
  19. Format settings, CABAC : Yes
  20. Format settings, ReFrames : 2 frames
  21. Format settings, GOP : M=1, N=10
  22. Codec ID : V_MPEG4/ISO/AVC
  23. Duration : 1h 34mn
  24. Bit rate mode : Variable
  25. Bit rate : 25.0 Mbps
  26. Width : 1 920 pixels
  27. Height : 1 080 pixels
  28. Display aspect ratio : 16:9
  29. Frame rate mode : Constant
  30. Frame rate : 23.976 (24000/1001) fps
  31. Color space : YUV
  32. Chroma subsampling : 4:2:0
  33. Bit depth : 8 bits
  34. Scan type : Progressive
  35. Bits/(Pixel*Frame) : 0.502
  36. Stream size : 16.4 GiB (91%)
  37. Default : No
  38. Forced : No
  39.  
  40. Audio
  41. ID : 2
  42. Format : DTS
  43. Format/Info : Digital Theater Systems
  44. Format profile : MA / Core
  45. Mode : 16
  46. Format settings, Endianness : Big
  47. Codec ID : A_DTS
  48. Duration : 1h 34mn
  49. Bit rate mode : Variable / Constant
  50. Bit rate : 2 220 Kbps / 1 509 Kbps
  51. Channel(s) : 6 channels
  52. Channel positions : Front: L C R, Side: L R, LFE
  53. Sampling rate : 48.0 KHz
  54. Frame rate : 93.750 fps (512 spf)
  55. Bit depth : 16 bits
  56. Compression mode : Lossless / Lossy
  57. Stream size : 1.46 GiB (8%)
  58. Language : English
  59. Default : Yes
  60. Forced : No
  61.  
  62. Text #1
  63. ID : 3
  64. Format : PGS
  65. Muxing mode : zlib
  66. Codec ID : S_HDMV/PGS
  67. Codec ID/Info : Picture based subtitle format used on BDs/HD-DVDs
  68. Duration : 1h 33mn
  69. Bit rate : 34.7 Kbps
  70. Count of elements : 3491
  71. Stream size : 23.3 MiB (0%)
  72. Language : English
  73. Default : Yes
  74. Forced : No
  75.  
  76. Text #2
  77. ID : 4
  78. Format : PGS
  79. Muxing mode : zlib
  80. Codec ID : S_HDMV/PGS
  81. Codec ID/Info : Picture based subtitle format used on BDs/HD-DVDs
  82. Duration : 1h 32mn
  83. Bit rate : 27.2 Kbps
  84. Count of elements : 2772
  85. Stream size : 18.0 MiB (0%)
  86. Language : English
  87. Default : No
  88. Forced : No
  89.  
  90. Text #3
  91. ID : 5
  92. Format : PGS
  93. Muxing mode : zlib
  94. Codec ID : S_HDMV/PGS
  95. Codec ID/Info : Picture based subtitle format used on BDs/HD-DVDs
  96. Duration : 1h 32mn
  97. Bit rate : 24.3 Kbps
  98. Count of elements : 2794
  99. Stream size : 16.1 MiB (0%)
  100. Language : French
  101. Default : No
  102. Forced : No
  103.  
  104. Text #4
  105. ID : 6
  106. Format : PGS
  107. Muxing mode : zlib
  108. Codec ID : S_HDMV/PGS
  109. Codec ID/Info : Picture based subtitle format used on BDs/HD-DVDs
  110. Duration : 1h 32mn
  111. Bit rate : 23.1 Kbps
  112. Count of elements : 2166
  113. Stream size : 15.3 MiB (0%)
  114. Language : Spanish
  115. Default : No
  116. Forced : No
  117.  
  118. Text #5
  119. ID : 7
  120. Format : PGS
  121. Muxing mode : zlib
  122. Codec ID : S_HDMV/PGS
  123. Codec ID/Info : Picture based subtitle format used on BDs/HD-DVDs
  124. Duration : 1h 32mn
  125. Bit rate : 21.6 Kbps
  126. Count of elements : 2820
  127. Stream size : 14.3 MiB (0%)
  128. Language : Chinese
  129. Default : No
  130. Forced : No
  131.  
  132. Text #6
  133. ID : 8
  134. Format : PGS
  135. Muxing mode : zlib
  136. Codec ID : S_HDMV/PGS
  137. Codec ID/Info : Picture based subtitle format used on BDs/HD-DVDs
  138. Duration : 1h 32mn
  139. Bit rate : 21.3 Kbps
  140. Count of elements : 2818
  141. Stream size : 14.1 MiB (0%)
  142. Language : Chinese
  143. Default : No
  144. Forced : No
  145.  
  146. Menu
  147. 00:00:00.000 : en:00:00:00.000
  148. 00:05:54.312 : en:00:05:54.312
  149. 00:14:24.322 : en:00:14:24.322
  150. 00:21:11.604 : en:00:21:11.604
  151. 00:28:39.968 : en:00:28:39.968
  152. 00:35:25.915 : en:00:35:25.915
  153. 00:40:37.894 : en:00:40:37.894
  154. 00:47:54.121 : en:00:47:54.121
  155. 00:54:24.511 : en:00:54:24.511
  156. 01:00:06.228 : en:01:00:06.228
  157. 01:08:10.837 : en:01:08:10.837
  158. 01:16:01.432 : en:01:16:01.432
  159. 01:22:30.571 : en:01:22:30.571
  160. 01:32:03.560 : en:01:32:03.560
  161. 01:38:19.977 : en:01:38:19.977
  162. 01:47:35.616 : en:01:47:35.616
RAW Paste Data