G2A Many GEOs
SHARE
TWEET

Zootopia_REMUX

iMN0 Jun 17th, 2017 180 Never
Not a member of Pastebin yet? Sign Up, it unlocks many cool features!
  1. Video
  2. ID                                       : 1
  3. Format                                   : AVC
  4. Format/Info                              : Advanced Video Codec
  5. Format profile                           : High@L4.1
  6. Format settings, CABAC                   : Yes
  7. Format settings, ReFrames                : 4 frames
  8. Codec ID                                 : V_MPEG4/ISO/AVC
  9. Duration                                 : 1h 48mn
  10. Bit rate mode                            : Variable
  11. Maximum bit rate                         : 36.0 Mbps
  12. Width                                    : 1 920 pixels
  13. Height                                   : 1 080 pixels
  14. Display aspect ratio                     : 16:9
  15. Frame rate mode                          : Constant
  16. Frame rate                               : 23.976 (24000/1001) fps
  17. Color space                              : YUV
  18. Chroma subsampling                       : 4:2:0
  19. Bit depth                                : 8 bits
  20. Scan type                                : Progressive
  21. Title                                    : Zootopia.2016.1080p.BluRay.REMUX.AVC.DTS-HD.MA.7.1-RARBG
  22. Language                                 : English
  23. Default                                  : No
  24. Forced                                   : No
  25.  
  26. Audio #1
  27. ID                                       : 2
  28. Format                                   : DTS
  29. Format/Info                              : Digital Theater Systems
  30. Format profile                           : MA / Core
  31. Mode                                     : 16
  32. Format settings, Endianness              : Big
  33. Codec ID                                 : A_DTS
  34. Duration                                 : 1h 48mn
  35. Bit rate mode                            : Variable / Constant
  36. Bit rate                                 : Unknown / 1 509 Kbps
  37. Channel(s)                               : 8 channels / 6 channels
  38. Channel positions                        : Front: L C R, Side: L R, Back: L R, LFE / Front: L C R, Side: L R, LFE
  39. Sampling rate                            : 48.0 KHz
  40. Frame rate                               : 93.750 fps (512 spf)
  41. Bit depth                                : 24 bits
  42. Compression mode                         : Lossless / Lossy
  43. Title                                    : Zootopia.2016.1080p.BluRay.REMUX.AVC.DTS-HD.MA.7.1-RARBG
  44. Language                                 : English
  45. Default                                  : Yes
  46. Forced                                   : No
  47.  
  48. Audio #2
  49. ID                                       : 3
  50. Format                                   : DTS
  51. Format/Info                              : Digital Theater Systems
  52. Mode                                     : 16
  53. Format settings, Endianness              : Big
  54. Codec ID                                 : A_DTS
  55. Duration                                 : 1h 48mn
  56. Bit rate mode                            : Constant
  57. Bit rate                                 : 1 509 Kbps
  58. Channel(s)                               : 6 channels
  59. Channel positions                        : Front: L C R, Side: L R, LFE
  60. Sampling rate                            : 48.0 KHz
  61. Frame rate                               : 93.750 fps (512 spf)
  62. Bit depth                                : 24 bits
  63. Compression mode                         : Lossy
  64. Stream size                              : 1.14 GiB (5%)
  65. Title                                    : Zootopia.2016.1080p.BluRay.REMUX.AVC.DTS-HD.MA.7.1-RARBG
  66. Language                                 : English
  67. Default                                  : No
  68. Forced                                   : No
  69.  
  70. Audio #3
  71. ID                                       : 4
  72. Format                                   : AC-3
  73. Format/Info                              : Audio Coding 3
  74. Format profile                           : Dolby Digital
  75. Mode extension                           : CM (complete main)
  76. Format settings, Endianness              : Big
  77. Codec ID                                 : A_AC3
  78. Duration                                 : 1h 48mn
  79. Bit rate mode                            : Constant
  80. Bit rate                                 : 320 Kbps
  81. Channel(s)                               : 2 channels
  82. Channel positions                        : Front: L R
  83. Sampling rate                            : 48.0 KHz
  84. Frame rate                               : 31.250 fps (1536 spf)
  85. Compression mode                         : Lossy
  86. Stream size                              : 248 MiB (1%)
  87. Title                                    : Zootopia.2016.1080p.BluRay.REMUX.AVC.DTS-HD.MA.7.1-RARBG
  88. Language                                 : English
  89. Default                                  : No
  90. Forced                                   : No
  91.  
  92. Audio #4
  93. ID                                       : 5
  94. Format                                   : AC-3
  95. Format/Info                              : Audio Coding 3
  96. Mode extension                           : CM (complete main)
  97. Format settings, Endianness              : Big
  98. Codec ID                                 : A_AC3
  99. Duration                                 : 1h 48mn
  100. Bit rate mode                            : Constant
  101. Bit rate                                 : 640 Kbps
  102. Channel(s)                               : 6 channels
  103. Channel positions                        : Front: L C R, Side: L R, LFE
  104. Sampling rate                            : 48.0 KHz
  105. Frame rate                               : 31.250 fps (1536 spf)
  106. Compression mode                         : Lossy
  107. Stream size                              : 497 MiB (2%)
  108. Title                                    : Zootopia.2016.1080p.BluRay.REMUX.AVC.DTS-HD.MA.7.1-RARBG
  109. Language                                 : French
  110. Default                                  : No
  111. Forced                                   : No
  112.  
  113. Audio #5
  114. ID                                       : 6
  115. Format                                   : AC-3
  116. Format/Info                              : Audio Coding 3
  117. Mode extension                           : CM (complete main)
  118. Format settings, Endianness              : Big
  119. Codec ID                                 : A_AC3
  120. Duration                                 : 1h 48mn
  121. Bit rate mode                            : Constant
  122. Bit rate                                 : 640 Kbps
  123. Channel(s)                               : 6 channels
  124. Channel positions                        : Front: L C R, Side: L R, LFE
  125. Sampling rate                            : 48.0 KHz
  126. Frame rate                               : 31.250 fps (1536 spf)
  127. Compression mode                         : Lossy
  128. Stream size                              : 497 MiB (2%)
  129. Title                                    : Zootopia.2016.1080p.BluRay.REMUX.AVC.DTS-HD.MA.7.1-RARBG
  130. Language                                 : Spanish
  131. Default                                  : No
  132. Forced                                   : No
  133.  
  134. Text #1
  135. ID                                       : 7
  136. Format                                   : PGS
  137. Muxing mode                              : zlib
  138. Codec ID                                 : S_HDMV/PGS
  139. Codec ID/Info                            : Picture based subtitle format used on BDs/HD-DVDs
  140. Title                                    : English-PGS
  141. Language                                 : English
  142. Default                                  : No
  143. Forced                                   : No
  144.  
  145. Text #2
  146. ID                                       : 8
  147. Format                                   : PGS
  148. Muxing mode                              : zlib
  149. Codec ID                                 : S_HDMV/PGS
  150. Codec ID/Info                            : Picture based subtitle format used on BDs/HD-DVDs
  151. Title                                    : English-SDH-PGS
  152. Language                                 : English
  153. Default                                  : No
  154. Forced                                   : No
  155.  
  156. Text #3
  157. ID                                       : 9
  158. Format                                   : PGS
  159. Muxing mode                              : zlib
  160. Codec ID                                 : S_HDMV/PGS
  161. Codec ID/Info                            : Picture based subtitle format used on BDs/HD-DVDs
  162. Title                                    : French-PGS
  163. Language                                 : French
  164. Default                                  : No
  165. Forced                                   : No
  166.  
  167. Text #4
  168. ID                                       : 10
  169. Format                                   : PGS
  170. Muxing mode                              : zlib
  171. Codec ID                                 : S_HDMV/PGS
  172. Codec ID/Info                            : Picture based subtitle format used on BDs/HD-DVDs
  173. Title                                    : Spanish-PGS
  174. Language                                 : Spanish
  175. Default                                  : No
  176. Forced                                   : No
  177.  
  178. Menu
  179. 00:00:00.000                             : en:Chapter 01
  180. 00:00:59.559                             : en:Chapter 02
  181. 00:05:50.099                             : en:Chapter 03
  182. 00:10:05.563                             : en:Chapter 04
  183. 00:14:31.537                             : en:Chapter 05
  184. 00:18:24.019                             : en:Chapter 06
  185. 00:26:03.353                             : en:Chapter 07
  186. 00:30:57.438                             : en:Chapter 08
  187. 00:37:07.099                             : en:Chapter 09
  188. 00:40:43.441                             : en:Chapter 10
  189. 00:44:31.752                             : en:Chapter 11
  190. 00:51:40.430                             : en:Chapter 12
  191. 00:55:40.378                             : en:Chapter 13
  192. 01:00:48.269                             : en:Chapter 14
  193. 01:03:37.855                             : en:Chapter 15
  194. 01:09:19.822                             : en:Chapter 16
  195. 01:13:39.164                             : en:Chapter 17
  196. 01:17:07.372                             : en:Chapter 18
  197. 01:21:52.365                             : en:Chapter 19
  198. 01:28:19.168                             : en:Chapter 20
  199. 01:32:43.432                             : en:Chapter 21
  200. 01:36:12.141                             : en:Chapter 22
RAW Paste Data
Ledger Nano X - The secure hardware wallet
We use cookies for various purposes including analytics. By continuing to use Pastebin, you agree to our use of cookies as described in the Cookies Policy. OK, I Understand
Top