iMN0

Marvels.The.Punisher.S01E01.3AM.2160p.NF.WEB-DL.DDP5.1.Atmos.DV.H.265-CRYBABIES.mkv

Jul 13th, 2021
193
Never
Not a member of Pastebin yet? Sign Up, it unlocks many cool features!
  1. General
  2. Unique ID : 169558280221419361880322386757498399494 (0x7F8FBCA6C55F95B12F1035B7635B6B06)
  3. Complete name : Marvels.The.Punisher.S01E01.3AM.2160p.NF.WEB-DL.DDP5.1.Atmos.DV.H.265-CRYBABIES.mkv
  4. Format : Matroska
  5. Format version : Version 4
  6. File size : 5.91 GiB
  7. Duration : 51 min 23 s
  8. Overall bit rate : 16.5 Mb/s
  9. Encoded date : UTC 2021-07-11 17:36:49
  10. Writing application : mkvmerge v59.0.0 ('Shining Star') 64-bit
  11. Writing library : libebml v1.4.2 + libmatroska v1.6.4
  12.  
  13. Video
  14. ID : 1
  15. Format : HEVC
  16. Format/Info : High Efficiency Video Coding
  17. Format profile : Main 10@L5@Main
  18. HDR format : Dolby Vision, Version 1.0, dvhe.05.06, BL+RPU
  19. Codec ID : V_MPEGH/ISO/HEVC
  20. Duration : 51 min 23 s
  21. Bit rate : 15.7 Mb/s
  22. Width : 3 840 pixels
  23. Height : 2 160 pixels
  24. Display aspect ratio : 16:9
  25. Frame rate mode : Constant
  26. Frame rate : 23.976 (24000/1001) FPS
  27. Color space : YUV
  28. Chroma subsampling : 4:2:0
  29. Bit depth : 10 bits
  30. Bits/(Pixel*Frame) : 0.079
  31. Stream size : 5.64 GiB (95%)
  32. Default : Yes
  33. Forced : No
  34. Color range : Full
  35.  
  36. Audio
  37. ID : 2
  38. Format : E-AC-3 JOC
  39. Format/Info : Enhanced AC-3 with Joint Object Coding
  40. Commercial name : Dolby Digital Plus with Dolby Atmos
  41. Codec ID : A_EAC3
  42. Duration : 51 min 23 s
  43. Bit rate mode : Constant
  44. Bit rate : 768 kb/s
  45. Channel(s) : 6 channels
  46. Channel layout : L R C LFE Ls Rs
  47. Sampling rate : 48.0 kHz
  48. Frame rate : 31.250 FPS (1536 SPF)
  49. Compression mode : Lossy
  50. Stream size : 282 MiB (5%)
  51. Language : English
  52. Service kind : Complete Main
  53. Default : Yes
  54. Forced : No
  55. Complexity index : 16
  56. Number of dynamic objects : 15
  57. Bed channel count : 1 channel
  58. Bed channel configuration : LFE
  59.  
  60. Text #1
  61. ID : 3
  62. Format : UTF-8
  63. Codec ID : S_TEXT/UTF8
  64. Codec ID/Info : UTF-8 Plain Text
  65. Duration : 49 min 1 s
  66. Bit rate : 69 b/s
  67. Count of elements : 730
  68. Stream size : 24.9 KiB (0%)
  69. Title : English (SDH)
  70. Language : English
  71. Default : No
  72. Forced : No
  73.  
  74. Text #2
  75. ID : 4
  76. Format : UTF-8
  77. Codec ID : S_TEXT/UTF8
  78. Codec ID/Info : UTF-8 Plain Text
  79. Duration : 50 min 0 s
  80. Bit rate : 93 b/s
  81. Count of elements : 592
  82. Stream size : 34.2 KiB (0%)
  83. Title : العربية
  84. Language : Arabic
  85. Default : No
  86. Forced : No
  87.  
  88. Text #3
  89. ID : 5
  90. Format : UTF-8
  91. Codec ID : S_TEXT/UTF8
  92. Codec ID/Info : UTF-8 Plain Text
  93. Duration : 49 min 0 s
  94. Bit rate : 48 b/s
  95. Count of elements : 494
  96. Stream size : 17.3 KiB (0%)
  97. Title : Čeština
  98. Language : Czech
  99. Default : No
  100. Forced : No
  101.  
  102. Text #4
  103. ID : 6
  104. Format : UTF-8
  105. Codec ID : S_TEXT/UTF8
  106. Codec ID/Info : UTF-8 Plain Text
  107. Duration : 50 min 0 s
  108. Bit rate : 49 b/s
  109. Count of elements : 550
  110. Stream size : 18.2 KiB (0%)
  111. Title : Dansk
  112. Language : Danish
  113. Default : No
  114. Forced : No
  115.  
  116. Text #5
  117. ID : 7
  118. Format : UTF-8
  119. Codec ID : S_TEXT/UTF8
  120. Codec ID/Info : UTF-8 Plain Text
  121. Duration : 50 min 0 s
  122. Bit rate : 53 b/s
  123. Count of elements : 552
  124. Stream size : 19.5 KiB (0%)
  125. Title : Deutsch
  126. Language : German
  127. Default : No
  128. Forced : No
  129.  
  130. Text #6
  131. ID : 8
  132. Format : UTF-8
  133. Codec ID : S_TEXT/UTF8
  134. Codec ID/Info : UTF-8 Plain Text
  135. Duration : 50 min 0 s
  136. Bit rate : 91 b/s
  137. Count of elements : 586
  138. Stream size : 33.6 KiB (0%)
  139. Title : Ελληνικά
  140. Language : Greek
  141. Default : No
  142. Forced : No
  143.  
  144. Text #7
  145. ID : 9
  146. Format : UTF-8
  147. Codec ID : S_TEXT/UTF8
  148. Codec ID/Info : UTF-8 Plain Text
  149. Duration : 50 min 0 s
  150. Bit rate : 50 b/s
  151. Count of elements : 582
  152. Stream size : 18.5 KiB (0%)
  153. Title : Español
  154. Language : Spanish
  155. Default : No
  156. Forced : No
  157.  
  158. Text #8
  159. ID : 10
  160. Format : UTF-8
  161. Codec ID : S_TEXT/UTF8
  162. Codec ID/Info : UTF-8 Plain Text
  163. Duration : 50 min 3 s
  164. Bit rate : 53 b/s
  165. Count of elements : 581
  166. Stream size : 19.5 KiB (0%)
  167. Title : Español (Europa)
  168. Language : Spanish
  169. Default : No
  170. Forced : No
  171.  
  172. Text #9
  173. ID : 11
  174. Format : UTF-8
  175. Codec ID : S_TEXT/UTF8
  176. Codec ID/Info : UTF-8 Plain Text
  177. Duration : 49 min 4 s
  178. Bit rate : 48 b/s
  179. Count of elements : 487
  180. Stream size : 17.6 KiB (0%)
  181. Title : Suomi
  182. Language : Finnish
  183. Default : No
  184. Forced : No
  185.  
  186. Text #10
  187. ID : 12
  188. Format : UTF-8
  189. Codec ID : S_TEXT/UTF8
  190. Codec ID/Info : UTF-8 Plain Text
  191. Duration : 50 min 5 s
  192. Bit rate : 53 b/s
  193. Count of elements : 570
  194. Stream size : 19.6 KiB (0%)
  195. Title : Français
  196. Language : French
  197. Default : No
  198. Forced : No
  199.  
  200. Text #11
  201. ID : 13
  202. Format : UTF-8
  203. Codec ID : S_TEXT/UTF8
  204. Codec ID/Info : UTF-8 Plain Text
  205. Duration : 49 min 58 s
  206. Bit rate : 91 b/s
  207. Count of elements : 596
  208. Stream size : 33.4 KiB (0%)
  209. Title : עברית
  210. Language : Hebrew
  211. Default : No
  212. Forced : No
  213.  
  214. Text #12
  215. ID : 14
  216. Format : UTF-8
  217. Codec ID : S_TEXT/UTF8
  218. Codec ID/Info : UTF-8 Plain Text
  219. Duration : 49 min 58 s
  220. Bit rate : 45 b/s
  221. Count of elements : 545
  222. Stream size : 16.5 KiB (0%)
  223. Title : Hrvatski
  224. Language : Croatian
  225. Default : No
  226. Forced : No
  227.  
  228. Text #13
  229. ID : 15
  230. Format : UTF-8
  231. Codec ID : S_TEXT/UTF8
  232. Codec ID/Info : UTF-8 Plain Text
  233. Duration : 50 min 0 s
  234. Bit rate : 47 b/s
  235. Count of elements : 482
  236. Stream size : 17.5 KiB (0%)
  237. Title : Magyar
  238. Language : Hungarian
  239. Default : No
  240. Forced : No
  241.  
  242. Text #14
  243. ID : 16
  244. Format : UTF-8
  245. Codec ID : S_TEXT/UTF8
  246. Codec ID/Info : UTF-8 Plain Text
  247. Duration : 48 min 56 s
  248. Bit rate : 54 b/s
  249. Count of elements : 600
  250. Stream size : 19.6 KiB (0%)
  251. Title : Bahasa Indonesia
  252. Language : Indonesian
  253. Default : No
  254. Forced : No
  255.  
  256. Text #15
  257. ID : 17
  258. Format : UTF-8
  259. Codec ID : S_TEXT/UTF8
  260. Codec ID/Info : UTF-8 Plain Text
  261. Duration : 50 min 0 s
  262. Bit rate : 53 b/s
  263. Count of elements : 572
  264. Stream size : 19.7 KiB (0%)
  265. Title : Italiano
  266. Language : Italian
  267. Default : No
  268. Forced : No
  269.  
  270. Text #16
  271. ID : 18
  272. Format : UTF-8
  273. Codec ID : S_TEXT/UTF8
  274. Codec ID/Info : UTF-8 Plain Text
  275. Duration : 50 min 1 s
  276. Bit rate : 42 b/s
  277. Count of elements : 574
  278. Stream size : 15.4 KiB (0%)
  279. Title : 日本語
  280. Language : Japanese
  281. Default : No
  282. Forced : No
  283.  
  284. Text #17
  285. ID : 19
  286. Format : UTF-8
  287. Codec ID : S_TEXT/UTF8
  288. Codec ID/Info : UTF-8 Plain Text
  289. Duration : 50 min 0 s
  290. Bit rate : 56 b/s
  291. Count of elements : 592
  292. Stream size : 20.8 KiB (0%)
  293. Title : 한국어
  294. Language : Korean
  295. Default : No
  296. Forced : No
  297.  
  298. Text #18
  299. ID : 20
  300. Format : UTF-8
  301. Codec ID : S_TEXT/UTF8
  302. Codec ID/Info : UTF-8 Plain Text
  303. Duration : 49 min 2 s
  304. Bit rate : 50 b/s
  305. Count of elements : 560
  306. Stream size : 18.2 KiB (0%)
  307. Title : Norsk Bokmål
  308. Language : Norwegian Bokmal
  309. Default : No
  310. Forced : No
  311.  
  312. Text #19
  313. ID : 21
  314. Format : UTF-8
  315. Codec ID : S_TEXT/UTF8
  316. Codec ID/Info : UTF-8 Plain Text
  317. Duration : 49 min 58 s
  318. Bit rate : 46 b/s
  319. Count of elements : 481
  320. Stream size : 17.1 KiB (0%)
  321. Title : Nederlands
  322. Language : Dutch
  323. Default : No
  324. Forced : No
  325.  
  326. Text #20
  327. ID : 22
  328. Format : UTF-8
  329. Codec ID : S_TEXT/UTF8
  330. Codec ID/Info : UTF-8 Plain Text
  331. Duration : 50 min 11 s
  332. Bit rate : 46 b/s
  333. Count of elements : 567
  334. Stream size : 17.1 KiB (0%)
  335. Title : Polski
  336. Language : Polish
  337. Default : No
  338. Forced : No
  339.  
  340. Text #21
  341. ID : 23
  342. Format : UTF-8
  343. Codec ID : S_TEXT/UTF8
  344. Codec ID/Info : UTF-8 Plain Text
  345. Duration : 50 min 0 s
  346. Bit rate : 51 b/s
  347. Count of elements : 578
  348. Stream size : 18.9 KiB (0%)
  349. Title : Português
  350. Language : Portuguese
  351. Default : No
  352. Forced : No
  353.  
  354. Text #22
  355. ID : 24
  356. Format : UTF-8
  357. Codec ID : S_TEXT/UTF8
  358. Codec ID/Info : UTF-8 Plain Text
  359. Duration : 50 min 0 s
  360. Bit rate : 50 b/s
  361. Count of elements : 592
  362. Stream size : 18.6 KiB (0%)
  363. Title : Português (Brasil)
  364. Language : Portuguese
  365. Default : No
  366. Forced : No
  367.  
  368. Text #23
  369. ID : 25
  370. Format : UTF-8
  371. Codec ID : S_TEXT/UTF8
  372. Codec ID/Info : UTF-8 Plain Text
  373. Duration : 50 min 0 s
  374. Bit rate : 51 b/s
  375. Count of elements : 585
  376. Stream size : 18.8 KiB (0%)
  377. Title : Română
  378. Language : Romanian
  379. Default : No
  380. Forced : No
  381.  
  382. Text #24
  383. ID : 26
  384. Format : UTF-8
  385. Codec ID : S_TEXT/UTF8
  386. Codec ID/Info : UTF-8 Plain Text
  387. Duration : 50 min 0 s
  388. Bit rate : 78 b/s
  389. Count of elements : 592
  390. Stream size : 28.6 KiB (0%)
  391. Title : Русский
  392. Language : Russian
  393. Default : No
  394. Forced : No
  395.  
  396. Text #25
  397. ID : 27
  398. Format : UTF-8
  399. Codec ID : S_TEXT/UTF8
  400. Codec ID/Info : UTF-8 Plain Text
  401. Duration : 49 min 56 s
  402. Bit rate : 50 b/s
  403. Count of elements : 553
  404. Stream size : 18.3 KiB (0%)
  405. Title : Svenska
  406. Language : Swedish
  407. Default : No
  408. Forced : No
  409.  
  410. Text #26
  411. ID : 28
  412. Format : UTF-8
  413. Codec ID : S_TEXT/UTF8
  414. Codec ID/Info : UTF-8 Plain Text
  415. Duration : 50 min 0 s
  416. Bit rate : 129 b/s
  417. Count of elements : 594
  418. Stream size : 47.5 KiB (0%)
  419. Title : ไทย
  420. Language : Thai
  421. Default : No
  422. Forced : No
  423.  
  424. Text #27
  425. ID : 29
  426. Format : UTF-8
  427. Codec ID : S_TEXT/UTF8
  428. Codec ID/Info : UTF-8 Plain Text
  429. Duration : 50 min 0 s
  430. Bit rate : 53 b/s
  431. Count of elements : 585
  432. Stream size : 19.4 KiB (0%)
  433. Title : Türkçe
  434. Language : Turkish
  435. Default : No
  436. Forced : No
  437.  
  438. Text #28
  439. ID : 30
  440. Format : UTF-8
  441. Codec ID : S_TEXT/UTF8
  442. Codec ID/Info : UTF-8 Plain Text
  443. Duration : 50 min 0 s
  444. Bit rate : 66 b/s
  445. Count of elements : 585
  446. Stream size : 24.5 KiB (0%)
  447. Title : Tiếng Việt
  448. Language : Vietnamese
  449. Default : No
  450. Forced : No
  451.  
  452. Text #29
  453. ID : 31
  454. Format : UTF-8
  455. Codec ID : S_TEXT/UTF8
  456. Codec ID/Info : UTF-8 Plain Text
  457. Duration : 50 min 0 s
  458. Bit rate : 48 b/s
  459. Count of elements : 593
  460. Stream size : 17.7 KiB (0%)
  461. Title : 中文(简体)
  462. Language : Chinese
  463. Default : No
  464. Forced : No
  465.  
  466. Text #30
  467. ID : 32
  468. Format : UTF-8
  469. Codec ID : S_TEXT/UTF8
  470. Codec ID/Info : UTF-8 Plain Text
  471. Duration : 50 min 0 s
  472. Bit rate : 48 b/s
  473. Count of elements : 593
  474. Stream size : 17.8 KiB (0%)
  475. Title : 中文(繁體)
  476. Language : Chinese
  477. Default : No
  478. Forced : No
  479.  
  480. Text #31
  481. ID : 33
  482. Format : UTF-8
  483. Codec ID : S_TEXT/UTF8
  484. Codec ID/Info : UTF-8 Plain Text
  485. Duration : 21 s 439 ms
  486. Bit rate : 83 b/s
  487. Count of elements : 6
  488. Stream size : 224 Bytes (0%)
  489. Title : English (Forced)
  490. Language : English
  491. Default : Yes
  492. Forced : Yes
RAW Paste Data