SHARE
TWEET

Undercover.Blues.1993.1080p.BluRay.x264-SADPANDA

a guest Jun 13th, 2019 15 Never
Not a member of Pastebin yet? Sign Up, it unlocks many cool features!
  1. General
  2. Complete name                            : Undercover.Blues.1993.1080p.BluRay.x264-SADPANDA.mkv
  3. Format                                   : Matroska
  4. Format version                           : Version 4
  5. File size                                : 8.74 GiB
  6. Duration                                 : 1 h 30 min
  7. Overall bit rate mode                    : Variable
  8. Overall bit rate                         : 13.9 Mb/s
  9. Encoded date                             : UTC 2016-06-24 13:11:12
  10. Writing application                      : mkvmerge v9.2.0 ('Photograph') 64bit
  11. Writing library                          : libebml v1.3.3 + libmatroska v1.4.4
  12.  
  13. Video
  14. ID                                       : 1
  15. Format                                   : AVC
  16. Format/Info                              : Advanced Video Codec
  17. Format profile                           : High@L4.1
  18. Format settings                          : CABAC / 4 Ref Frames
  19. Format settings, CABAC                   : Yes
  20. Format settings, Reference frames        : 4 frames
  21. Codec ID                                 : V_MPEG4/ISO/AVC
  22. Duration                                 : 1 h 30 min
  23. Bit rate                                 : 12.5 Mb/s
  24. Width                                    : 1 920 pixels
  25. Height                                   : 1 040 pixels
  26. Display aspect ratio                     : 1.85:1
  27. Frame rate mode                          : Constant
  28. Frame rate                               : 23.976 (24000/1001) FPS
  29. Color space                              : YUV
  30. Chroma subsampling                       : 4:2:0
  31. Bit depth                                : 8 bits
  32. Scan type                                : Progressive
  33. Bits/(Pixel*Frame)                       : 0.262
  34. Stream size                              : 7.90 GiB (90%)
  35. Writing library                          : x264 core 148 r2692 64f4e24
  36. Encoding settings                        : cabac=1 / ref=4 / deblock=1:-3:-3 / analyse=0x3:0x113 / me=umh / subme=8 / psy=1 / psy_rd=1.00:0.25 / mixed_ref=1 / me_range=24 / chroma_me=1 / trellis=1 / 8x8dct=1 / cqm=0 / deadzone=21,11 / fast_pskip=1 / chroma_qp_offset=-4 / threads=24 / lookahead_threads=4 / sliced_threads=0 / nr=0 / decimate=1 / interlaced=0 / bluray_compat=0 / constrained_intra=0 / bframes=3 / b_pyramid=2 / b_adapt=2 / b_bias=0 / direct=3 / weightb=1 / open_gop=0 / weightp=2 / keyint=240 / keyint_min=24 / scenecut=40 / intra_refresh=0 / rc_lookahead=50 / rc=2pass / mbtree=1 / bitrate=12535 / ratetol=1.0 / qcomp=0.60 / qpmin=0 / qpmax=69 / qpstep=4 / cplxblur=20.0 / qblur=0.5 / ip_ratio=1.40 / aq=1:0.50
  37. Default                                  : Yes
  38. Forced                                   : No
  39.  
  40. Audio
  41. ID                                       : 2
  42. Format                                   : FLAC
  43. Format/Info                              : Free Lossless Audio Codec
  44. Codec ID                                 : A_FLAC
  45. Duration                                 : 1 h 30 min
  46. Bit rate mode                            : Variable
  47. Bit rate                                 : 1 331 kb/s
  48. Channel(s)                               : 2 channels
  49. Channel layout                           : L R
  50. Sampling rate                            : 48.0 kHz
  51. Frame rate                               : 11.719 FPS (4096 SPF)
  52. Bit depth                                : 24 bits
  53. Compression mode                         : Lossless
  54. Stream size                              : 859 MiB (10%)
  55. Writing library                          : libFLAC 1.2.1 (UTC 2007-09-17)
  56. Language                                 : English
  57. Default                                  : Yes
  58. Forced                                   : No
  59.  
  60. Menu
  61. 00:00:00.000                             : en:00:00:00.000
  62. 00:00:10.928                             : en:00:00:10.928
  63. 00:10:04.312                             : en:00:10:04.312
  64. 00:21:08.809                             : en:00:21:08.809
  65. 00:31:23.298                             : en:00:31:23.298
  66. 00:42:03.438                             : en:00:42:03.438
  67. 00:53:11.063                             : en:00:53:11.063
  68. 01:06:48.588                             : en:01:06:48.588
  69. 01:18:52.645                             : en:01:18:52.645
  70. 01:30:02.314                             : en:01:30:02.314
RAW Paste Data
We use cookies for various purposes including analytics. By continuing to use Pastebin, you agree to our use of cookies as described in the Cookies Policy. OK, I Understand
 
Top