Guest User

Fast Video Compression on Android

a guest
Nov 3rd, 2015
1,004
Never
Not a member of Pastebin yet? Sign Up, it unlocks many cool features!
  1. 11-03 13:08:25.925 12434-12485/project.package.name D/FFmpeg: Running publishing updates method
  2. 11-03 13:08:25.925 12434-12434/project.package.name D/TheTag: onProgress WARNING: linker: /data/data/project.package.name/files/ffmpeg has text relocations. This is wasting memory and prevents security hardening. Please fix.
  3. 11-03 13:08:25.936 12434-12434/project.package.name D/TheTag: onProgress ffmpeg version n2.4.2 Copyright (c) 2000-2014 the FFmpeg developers
  4. 11-03 13:08:25.936 12434-12434/project.package.name D/TheTag: onProgress built on Oct 7 2014 15:08:46 with gcc 4.8 (GCC)
  5. 11-03 13:08:25.936 12434-12434/project.package.name D/TheTag: onProgress configuration: --target-os=linux --cross-prefix=/home/sb/Source-Code/ffmpeg-android/toolchain-android/bin/arm-linux-androideabi- --arch=arm --cpu=cortex-a8 --enable-runtime-cpudetect --sysroot=/home/sb/Source-Code/ffmpeg-android/toolchain-android/sysroot --enable-pic --enable-libx264 --enable-libass --enable-libfreetype --enable-libfribidi --enable-fontconfig --enable-pthreads --disable-debug --disable-ffserver --enable-version3 --enable-hardcoded-tables --disable-ffplay --disable-ffprobe --enable-gpl --enable-yasm --disable-doc --disable-shared --enable-static --pkg-config=/home/sb/Source-Code/ffmpeg-android/ffmpeg-pkg-config --prefix=/home/sb/Source-Code/ffmpeg-android/build/armeabi-v7a-neon --extra-cflags='-I/home/sb/Source-Code/ffmpeg-android/toolchain-android/include -U_FORTIFY_SOURCE -D_FORTIFY_SOURCE=2 -fno-strict-overflow -fstack-protector-all -mfpu=neon' --extra-ldflags='-L/home/sb/Source-Code/ffmpeg-android/toolchain-android/lib -Wl,-z,relro -Wl,-z,now -pie' --extra-libs='-lpng -lexpat -lm' --extra-cxxflags=
  6. 11-03 13:08:25.936 12434-12434/project.package.name D/TheTag: onProgress libavutil 54. 7.100 / 54. 7.100
  7. 11-03 13:08:25.936 12434-12434/project.package.name D/TheTag: onProgress libavcodec 56. 1.100 / 56. 1.100
  8. 11-03 13:08:25.936 12434-12434/project.package.name D/TheTag: onProgress libavformat 56. 4.101 / 56. 4.101
  9. 11-03 13:08:25.936 12434-12434/project.package.name D/TheTag: onProgress libavdevice 56. 0.100 / 56. 0.100
  10. 11-03 13:08:25.936 12434-12434/project.package.name D/TheTag: onProgress libavfilter 5. 1.100 / 5. 1.100
  11. 11-03 13:08:25.936 12434-12434/project.package.name D/TheTag: onProgress libswscale 3. 0.100 / 3. 0.100
  12. 11-03 13:08:25.936 12434-12434/project.package.name D/TheTag: onProgress libswresample 1. 1.100 / 1. 1.100
  13. 11-03 13:08:25.946 12434-12434/project.package.name D/TheTag: onProgress libpostproc 53. 0.100 / 53. 0.100
  14. 11-03 13:08:26.536 12434-12434/project.package.name D/TheTag: onProgress Input #0, mov,mp4,m4a,3gp,3g2,mj2, from '/storage/emulated/0/asif.mp4':
  15. 11-03 13:08:26.536 12434-12434/project.package.name D/TheTag: onProgress Metadata:
  16. 11-03 13:08:26.536 12434-12434/project.package.name D/TheTag: onProgress major_brand : mp42
  17. 11-03 13:08:26.536 12434-12434/project.package.name D/TheTag: onProgress minor_version : 0
  18. 11-03 13:08:26.536 12434-12434/project.package.name D/TheTag: onProgress compatible_brands: isommp42
  19. 11-03 13:08:26.536 12434-12434/project.package.name D/TheTag: onProgress creation_time : 2015-10-29 06:06:11
  20. 11-03 13:08:26.536 12434-12434/project.package.name D/TheTag: onProgress Duration: 00:00:30.42, start: 0.000000, bitrate: 20352 kb/s
  21. 11-03 13:08:26.536 12434-12434/project.package.name D/TheTag: onProgress Stream #0:0(eng): Video: h264 (Constrained Baseline) (avc1 / 0x31637661), yuv420p, 1920x1080, 19956 kb/s, SAR 65536:65536 DAR 16:9, 29.40 fps, 29.42 tbr, 90k tbn, 180k tbc (default)
  22. 11-03 13:08:26.536 12434-12434/project.package.name D/TheTag: onProgress Metadata:
  23. 11-03 13:08:26.536 12434-12434/project.package.name D/TheTag: onProgress rotate : 270
  24. 11-03 13:08:26.546 12434-12434/project.package.name D/TheTag: onProgress creation_time : 2015-10-29 06:06:11
  25. 11-03 13:08:26.546 12434-12434/project.package.name D/TheTag: onProgress handler_name : VideoHandle
  26. 11-03 13:08:26.546 12434-12434/project.package.name D/TheTag: onProgress Side data:
  27. 11-03 13:08:26.546 12434-12434/project.package.name D/TheTag: onProgress displaymatrix: rotation of 90.00 degrees
  28. 11-03 13:08:26.546 12434-12434/project.package.name D/TheTag: onProgress Stream #0:1(eng): Audio: aac (mp4a / 0x6134706D), 48000 Hz, stereo, fltp, 192 kb/s (default)
  29. 11-03 13:08:26.546 12434-12434/project.package.name D/TheTag: onProgress Metadata:
  30. 11-03 13:08:26.546 12434-12434/project.package.name D/TheTag: onProgress creation_time : 2015-10-29 06:06:11
  31. 11-03 13:08:26.546 12434-12434/project.package.name D/TheTag: onProgress handler_name : SoundHandle
  32. 11-03 13:08:26.576 12434-12434/project.package.name D/TheTag: onProgress [libx264 @ 0xb8b788c0] using SAR=32/27
  33. 11-03 13:08:26.586 12434-12434/project.package.name D/TheTag: onProgress [libx264 @ 0xb8b788c0] using cpu capabilities: none!
  34. 11-03 13:08:26.686 12434-12434/project.package.name D/TheTag: onProgress [libx264 @ 0xb8b788c0] profile Constrained Baseline, level 2.1
  35. 11-03 13:08:26.686 12434-12434/project.package.name D/TheTag: onProgress [libx264 @ 0xb8b788c0] 264 - core 142 - H.264/MPEG-4 AVC codec - Copyleft 2003-2014 - http://www.videolan.org/x264.html - options: cabac=0 ref=1 deblock=0:0:0 analyse=0:0 me=dia subme=0 psy=1 psy_rd=1.00:0.00 mixed_ref=0 me_range=16 chroma_me=1 trellis=0 8x8dct=0 cqm=0 deadzone=21,11 fast_pskip=1 chroma_qp_offset=0 threads=4 lookahead_threads=4 sliced_threads=1 slices=4 nr=0 decimate=1 interlaced=0 bluray_compat=0 constrained_intra=0 bframes=0 weightp=0 keyint=250 keyint_min=20 scenecut=0 intra_refresh=0 rc=abr mbtree=0 bitrate=1000 ratetol=1.0 qcomp=0.60 qpmin=0 qpmax=69 qpstep=4 ip_ratio=1.40 aq=0
  36. 11-03 13:08:26.696 12434-12434/project.package.name D/TheTag: onProgress Output #0, mp4, to '/storage/emulated/0/output.mp4':
  37. 11-03 13:08:26.696 12434-12434/project.package.name D/TheTag: onProgress Metadata:
  38. 11-03 13:08:26.696 12434-12434/project.package.name D/TheTag: onProgress major_brand : mp42
  39. 11-03 13:08:26.696 12434-12434/project.package.name D/TheTag: onProgress minor_version : 0
  40. 11-03 13:08:26.696 12434-12434/project.package.name D/TheTag: onProgress compatible_brands: isommp42
  41. 11-03 13:08:26.706 12434-12434/project.package.name D/TheTag: onProgress encoder : Lavf56.4.101
  42. 11-03 13:08:26.706 12434-12434/project.package.name D/TheTag: onProgress Stream #0:0(eng): Video: h264 (libx264) ([33][0][0][0] / 0x0021), yuv420p, 480x320 [SAR 32:27 DAR 16:9], q=-1--1, 1000 kb/s, 20 fps, 10240 tbn, 20 tbc (default)
  43. 11-03 13:08:26.706 12434-12434/project.package.name D/TheTag: onProgress Metadata:
  44. 11-03 13:08:26.706 12434-12434/project.package.name D/TheTag: onProgress rotate : 270
  45. 11-03 13:08:26.706 12434-12434/project.package.name D/TheTag: onProgress creation_time : 2015-10-29 06:06:11
  46. 11-03 13:08:26.706 12434-12434/project.package.name D/TheTag: onProgress handler_name : VideoHandle
  47. 11-03 13:08:26.706 12434-12434/project.package.name D/TheTag: onProgress encoder : Lavc56.1.100 libx264
  48. 11-03 13:08:26.706 12434-12434/project.package.name D/TheTag: onProgress Stream #0:1(eng): Audio: aac ([64][0][0][0] / 0x0040), 48000 Hz, stereo, 192 kb/s (default)
  49. 11-03 13:08:26.706 12434-12434/project.package.name D/TheTag: onProgress Metadata:
  50. 11-03 13:08:26.706 12434-12434/project.package.name D/TheTag: onProgress creation_time : 2015-10-29 06:06:11
  51. 11-03 13:08:26.716 12434-12434/project.package.name D/TheTag: onProgress handler_name : SoundHandle
  52. 11-03 13:08:26.716 12434-12434/project.package.name D/TheTag: onProgress Stream mapping:
  53. 11-03 13:08:26.716 12434-12434/project.package.name D/TheTag: onProgress Stream #0:0 -> #0:0 (h264 (native) -> h264 (libx264))
  54. 11-03 13:08:26.716 12434-12434/project.package.name D/TheTag: onProgress Stream #0:1 -> #0:1 (copy)
  55. 11-03 13:08:26.716 12434-12434/project.package.name D/TheTag: onProgress Press [q] to stop, [?] for help
  56. 11-03 13:08:27.347 12434-12434/project.package.name D/TheTag: onProgress frame= 4 fps=0.0 q=23.0 size= 0kB time=00:00:00.20 bitrate= 1.9kbits/s
  57. 11-03 13:08:27.838 12434-12434/project.package.name D/TheTag: onProgress frame= 9 fps=8.6 q=24.0 size= 0kB time=00:00:00.45 bitrate= 0.9kbits/s
  58. 11-03 13:08:28.378 12434-12434/project.package.name D/TheTag: onProgress frame= 12 fps=7.7 q=25.0 size= 0kB time=00:00:00.60 bitrate= 0.6kbits/s dup=0 drop=2
  59. 11-03 13:08:28.909 12434-12434/project.package.name D/TheTag: onProgress frame= 15 fps=7.1 q=25.0 size= 0kB time=00:00:00.75 bitrate= 0.5kbits/s dup=0 drop=3
  60. 11-03 13:08:29.529 12434-12434/project.package.name D/TheTag: onProgress frame= 19 fps=7.1 q=26.0 size= 0kB time=00:00:00.95 bitrate= 0.4kbits/s dup=0 drop=5
  61. 11-03 13:08:30.030 12434-12434/project.package.name D/TheTag: onProgress frame= 22 fps=6.6 q=25.0 size= 29kB time=00:00:01.10 bitrate= 217.4kbits/s dup=0 drop=6
  62. 11-03 13:08:30.681 12434-12434/project.package.name D/TheTag: onProgress frame= 24 fps=6.2 q=25.0 size= 198kB time=00:00:02.04 bitrate= 791.0kbits/s dup=0 drop=8
  63. 11-03 13:08:31.311 12434-12434/project.package.name D/TheTag: onProgress frame= 28 fps=6.3 q=25.0 size= 227kB time=00:00:02.04 bitrate= 906.6kbits/s dup=0 drop=10
  64. 11-03 13:08:31.932 12434-12434/project.package.name D/TheTag: onProgress frame= 32 fps=6.3 q=25.0 size= 256kB time=00:00:02.04 bitrate=1022.2kbits/s dup=0 drop=12
  65. 11-03 13:08:32.432 12434-12434/project.package.name D/TheTag: onProgress frame= 35 fps=6.3 q=25.0 size= 277kB time=00:00:02.04 bitrate=1108.0kbits/s dup=0 drop=13
  66. 11-03 13:08:32.933 12434-12434/project.package.name D/TheTag: onProgress frame= 38 fps=6.2 q=25.0 size= 298kB time=00:00:02.04 bitrate=1192.7kbits/s dup=0 drop=14
  67. 11-03 13:08:33.484 12434-12434/project.package.name D/TheTag: onProgress frame= 41 fps=6.2 q=26.0 size= 319kB time=00:00:02.05 bitrate=1273.6kbits/s dup=0 drop=15
  68. 11-03 13:08:34.044 12434-12434/project.package.name D/TheTag: onProgress frame= 45 fps=6.2 q=25.0 size= 347kB time=00:00:03.05 bitrate= 931.3kbits/s dup=0 drop=17
  69. 11-03 13:08:34.625 12434-12434/project.package.name D/TheTag: onProgress frame= 49 fps=6.3 q=26.0 size= 374kB time=00:00:03.05 bitrate=1004.9kbits/s dup=0 drop=19
  70. 11-03 13:08:35.165 12434-12434/project.package.name D/TheTag: onProgress frame= 53 fps=6.3 q=26.0 size= 401kB time=00:00:03.05 bitrate=1076.6kbits/s dup=0 drop=21
  71. 11-03 13:08:35.776 12434-12434/project.package.name D/TheTag: onProgress frame= 57 fps=6.4 q=25.0 size= 430kB time=00:00:03.05 bitrate=1154.5kbits/s dup=0 drop=23
  72. 11-03 13:08:36.367 12434-12434/project.package.name D/TheTag: onProgress frame= 60 fps=6.3 q=25.0 size= 451kB time=00:00:03.05 bitrate=1209.9kbits/s dup=0 drop=24
  73. 11-03 13:08:36.737 12434-12434/project.package.name D/TheTag: onProgress frame= 62 fps=6.2 q=25.0 size= 465kB time=00:00:03.10 bitrate=1227.7kbits/s dup=0 drop=26
  74. 11-03 13:08:37.388 12434-12434/project.package.name D/TheTag: onProgress frame= 66 fps=6.2 q=25.0 size= 494kB time=00:00:04.05 bitrate= 997.6kbits/s dup=0 drop=28
  75. 11-03 13:08:37.968 12434-12434/project.package.name D/TheTag: onProgress frame= 70 fps=6.3 q=25.0 size= 523kB time=00:00:04.05 bitrate=1056.9kbits/s dup=0 drop=30
  76. 11-03 13:08:38.499 12434-12434/project.package.name D/TheTag: onProgress frame= 75 fps=6.4 q=25.0 size= 558kB time=00:00:04.05 bitrate=1127.8kbits/s dup=0 drop=31
  77. 11-03 13:08:39.100 12434-12434/project.package.name D/TheTag: onProgress frame= 79 fps=6.4 q=25.0 size= 587kB time=00:00:04.05 bitrate=1185.8kbits/s dup=0 drop=34
  78. 11-03 13:08:39.560 12434-12434/project.package.name D/TheTag: onProgress frame= 83 fps=6.5 q=25.0 size= 609kB time=00:00:04.15 bitrate=1202.0kbits/s dup=0 drop=35
  79. 11-03 13:08:40.151 12434-12434/project.package.name D/TheTag: onProgress frame= 87 fps=6.5 q=25.0 size= 644kB time=00:00:05.05 bitrate=1042.7kbits/s dup=0 drop=37
  80. 11-03 13:08:40.761 12434-12434/project.package.name D/TheTag: onProgress frame= 91 fps=6.5 q=25.0 size= 673kB time=00:00:05.05 bitrate=1089.8kbits/s dup=0 drop=39
  81. 11-03 13:08:41.492 12434-12434/project.package.name D/TheTag: onProgress frame= 94 fps=6.5 q=25.0 size= 694kB time=00:00:05.05 bitrate=1124.4kbits/s dup=0 drop=41
  82. 11-03 13:08:41.873 12434-12434/project.package.name D/TheTag: onProgress frame= 96 fps=6.4 q=25.0 size= 708kB time=00:00:05.05 bitrate=1147.6kbits/s dup=0 drop=42
  83. 11-03 13:08:42.423 12434-12434/project.package.name D/TheTag: onProgress frame= 100 fps=6.4 q=25.0 size= 736kB time=00:00:05.05 bitrate=1192.9kbits/s dup=0 drop=44
  84. 11-03 13:08:42.884 12434-12434/project.package.name D/TheTag: onProgress frame= 103 fps=6.4 q=25.0 size= 751kB time=00:00:05.15 bitrate=1194.9kbits/s dup=0 drop=45
  85. 11-03 13:08:43.494 12434-12434/project.package.name D/TheTag: onProgress frame= 107 fps=6.4 q=25.0 size= 788kB time=00:00:06.05 bitrate=1065.2kbits/s dup=0 drop=47
  86. 11-03 13:08:43.995 12434-12434/project.package.name D/TheTag: onProgress frame= 111 fps=6.4 q=24.0 size= 817kB time=00:00:06.05 bitrate=1105.2kbits/s dup=0 drop=49
  87. 11-03 13:08:44.555 12434-12434/project.package.name D/TheTag: onProgress frame= 115 fps=6.5 q=25.0 size= 847kB time=00:00:06.05 bitrate=1144.7kbits/s dup=0 drop=51
  88. 11-03 13:08:45.156 12434-12434/project.package.name D/TheTag: onProgress frame= 120 fps=6.5 q=25.0 size= 884kB time=00:00:06.05 bitrate=1195.2kbits/s dup=0 drop=52
  89. 11-03 13:08:45.787 12434-12434/project.package.name D/TheTag: onProgress frame= 124 fps=6.5 q=25.0 size= 894kB time=00:00:06.20 bitrate=1181.1kbits/s dup=0 drop=54
  90. 11-03 13:08:46.337 12434-12434/project.package.name D/TheTag: onProgress frame= 127 fps=6.5 q=25.0 size= 939kB time=00:00:07.06 bitrate=1089.7kbits/s dup=0 drop=56
  91. 11-03 13:08:46.838 12434-12434/project.package.name D/TheTag: onProgress frame= 130 fps=6.5 q=25.0 size= 960kB time=00:00:07.06 bitrate=1114.2kbits/s dup=0 drop=58
  92. 11-03 13:08:47.428 12434-12434/project.package.name D/TheTag: onProgress frame= 134 fps=6.5 q=25.0 size= 986kB time=00:00:07.06 bitrate=1144.1kbits/s dup=0 drop=60
  93. 11-03 13:08:48.009 12434-12434/project.package.name D/TheTag: onProgress frame= 138 fps=6.5 q=26.0 size= 1014kB time=00:00:07.06 bitrate=1176.7kbits/s dup=0 drop=61
  94. 11-03 13:08:48.450 12434-12434/project.package.name D/TheTag: onProgress frame= 141 fps=6.5 q=26.0 size= 1036kB time=00:00:07.06 bitrate=1202.2kbits/s dup=0 drop=63
  95. 11-03 13:08:48.880 12434-12434/project.package.name D/TheTag: onProgress frame= 144 fps=6.5 q=26.0 size= 1057kB time=00:00:07.59 bitrate=1140.2kbits/s dup=0 drop=64
  96. 11-03 13:08:49.551 12434-12434/project.package.name D/TheTag: onProgress frame= 149 fps=6.5 q=26.0 size= 1088kB time=00:00:08.06 bitrate=1105.6kbits/s dup=0 drop=66
  97. 11-03 13:08:50.111 12434-12434/project.package.name D/TheTag: onProgress frame= 153 fps=6.6 q=26.0 size= 1114kB time=00:00:08.06 bitrate=1132.1kbits/s dup=0 drop=69
  98. 11-03 13:08:50.772 12434-12434/project.package.name D/TheTag: onProgress frame= 158 fps=6.6 q=26.0 size= 1148kB time=00:00:08.06 bitrate=1166.2kbits/s dup=0 drop=70
  99. 11-03 13:08:51.403 12434-12434/project.package.name D/TheTag: onProgress frame= 162 fps=6.6 q=27.0 size= 1175kB time=00:00:08.10 bitrate=1187.9kbits/s dup=0 drop=72
  100. 11-03 13:08:51.803 12434-12434/project.package.name D/TheTag: onProgress frame= 164 fps=6.5 q=26.0 size= 1181kB time=00:00:08.20 bitrate=1180.2kbits/s dup=0 drop=74
  101. 11-03 13:08:52.514 12434-12434/project.package.name D/TheTag: onProgress frame= 169 fps=6.6 q=25.0 size= 1236kB time=00:00:09.06 bitrate=1116.9kbits/s dup=0 drop=76
  102. 11-03 13:08:52.954 12434-12434/project.package.name D/TheTag: onProgress frame= 172 fps=6.6 q=25.0 size= 1258kB time=00:00:09.06 bitrate=1136.9kbits/s dup=0 drop=78
  103. 11-03 13:08:53.595 12434-12434/project.package.name D/TheTag: onProgress frame= 177 fps=6.6 q=25.0 size= 1298kB time=00:00:09.06 bitrate=1172.8kbits/s dup=0 drop=79
  104. 11-03 13:08:54.086 12434-12434/project.package.name D/TheTag: onProgress frame= 181 fps=6.6 q=25.0 size= 1330kB time=00:00:09.06 bitrate=1201.4kbits/s dup=0 drop=81
  105. 11-03 13:08:54.616 12434-12434/project.package.name D/TheTag: onProgress frame= 184 fps=6.6 q=25.0 size= 1331kB time=00:00:09.20 bitrate=1185.3kbits/s dup=0 drop=83
  106. 11-03 13:08:55.097 12434-12434/project.package.name D/TheTag: onProgress frame= 187 fps=6.6 q=25.0 size= 1380kB time=00:00:10.06 bitrate=1122.6kbits/s dup=0 drop=85
  107. 11-03 13:08:55.667 12434-12434/project.package.name D/TheTag: onProgress frame= 192 fps=6.7 q=25.0 size= 1422kB time=00:00:10.06 bitrate=1156.9kbits/s dup=0 drop=86
  108. 11-03 13:08:56.358 12434-12434/project.package.name D/TheTag: onProgress frame= 196 fps=6.6 q=25.0 size= 1455kB time=00:00:10.06 bitrate=1183.5kbits/s dup=0 drop=89
  109. 11-03 13:08:56.879 12434-12434/project.package.name D/TheTag: onProgress frame= 200 fps=6.6 q=25.0 size= 1486kB time=00:00:10.06 bitrate=1208.7kbits/s dup=0 drop=91
  110. 11-03 13:08:57.419 12434-12434/project.package.name D/TheTag: onProgress frame= 204 fps=6.7 q=25.0 size= 1495kB time=00:00:10.20 bitrate=1201.0kbits/s dup=0 drop=93
  111. 11-03 13:08:58.060 12434-12434/project.package.name D/TheTag: onProgress frame= 209 fps=6.7 q=26.0 size= 1554kB time=00:00:11.07 bitrate=1149.4kbits/s dup=0 drop=94
  112. 11-03 13:08:58.590 12434-12434/project.package.name D/TheTag: onProgress frame= 213 fps=6.7 q=25.0 size= 1585kB time=00:00:11.07 bitrate=1172.4kbits/s dup=0 drop=96
  113. 11-03 13:08:59.161 12434-12434/project.package.name D/TheTag: onProgress frame= 217 fps=6.7 q=26.0 size= 1614kB time=00:00:11.07 bitrate=1194.4kbits/s dup=0 drop=98
  114. 11-03 13:08:59.651 12434-12434/project.package.name D/TheTag: onProgress frame= 220 fps=6.7 q=25.0 size= 1638kB time=00:00:11.07 bitrate=1211.7kbits/s dup=0 drop=100
  115. 11-03 13:09:00.172 12434-12434/project.package.name D/TheTag: onProgress frame= 224 fps=6.7 q=25.0 size= 1653kB time=00:00:11.20 bitrate=1209.3kbits/s dup=0 drop=102
  116. 11-03 13:09:00.693 12434-12434/project.package.name D/TheTag: onProgress frame= 228 fps=6.7 q=25.0 size= 1698kB time=00:00:12.07 bitrate=1152.2kbits/s dup=0 drop=104
  117. 11-03 13:09:01.233 12434-12434/project.package.name D/TheTag: onProgress frame= 232 fps=6.7 q=25.0 size= 1730kB time=00:00:12.07 bitrate=1173.4kbits/s dup=0 drop=106
  118. 11-03 13:09:01.804 12434-12434/project.package.name D/TheTag: onProgress frame= 236 fps=6.7 q=25.0 size= 1756kB time=00:00:12.07 bitrate=1191.5kbits/s dup=0 drop=108
  119. 11-03 13:09:02.344 12434-12434/project.package.name D/TheTag: onProgress frame= 240 fps=6.7 q=25.0 size= 1787kB time=00:00:12.07 bitrate=1212.5kbits/s dup=0 drop=110
  120. 11-03 13:09:02.915 12434-12434/project.package.name D/TheTag: onProgress frame= 245 fps=6.8 q=26.0 size= 1802kB time=00:00:12.25 bitrate=1204.8kbits/s dup=0 drop=111
  121. 11-03 13:09:03.456 12434-12434/project.package.name D/TheTag: onProgress frame= 249 fps=6.8 q=25.0 size= 1854kB time=00:00:13.07 bitrate=1161.4kbits/s dup=0 drop=113
  122. 11-03 13:09:04.096 12434-12434/project.package.name D/TheTag: onProgress frame= 253 fps=6.8 q=27.0 size= 1897kB time=00:00:13.07 bitrate=1188.2kbits/s dup=0 drop=116
  123. 11-03 13:09:04.647 12434-12434/project.package.name D/TheTag: onProgress frame= 257 fps=6.8 q=26.0 size= 1926kB time=00:00:13.07 bitrate=1206.7kbits/s dup=0 drop=117
  124. 11-03 13:09:05.097 12434-12434/project.package.name D/TheTag: onProgress frame= 260 fps=6.8 q=26.0 size= 1949kB time=00:00:13.07 bitrate=1220.9kbits/s dup=0 drop=119
  125. 11-03 13:09:05.688 12434-12434/project.package.name D/TheTag: onProgress frame= 264 fps=6.8 q=26.0 size= 1964kB time=00:00:13.20 bitrate=1218.7kbits/s dup=0 drop=121
  126. 11-03 13:09:06.208 12434-12434/project.package.name D/TheTag: onProgress frame= 268 fps=6.8 q=26.0 size= 2012kB time=00:00:14.08 bitrate=1170.4kbits/s dup=0 drop=123
  127. 11-03 13:09:06.769 12434-12434/project.package.name D/TheTag: onProgress frame= 272 fps=6.8 q=26.0 size= 2043kB time=00:00:14.08 bitrate=1188.6kbits/s dup=0 drop=125
  128. 11-03 13:09:07.330 12434-12434/project.package.name D/TheTag: onProgress frame= 277 fps=6.8 q=25.0 size= 2079kB time=00:00:14.08 bitrate=1209.5kbits/s dup=0 drop=126
  129. 11-03 13:09:07.870 12434-12434/project.package.name D/TheTag: onProgress frame= 281 fps=6.8 q=26.0 size= 2109kB time=00:00:14.08 bitrate=1226.9kbits/s dup=0 drop=128
  130. 11-03 13:09:08.431 12434-12434/project.package.name D/TheTag: onProgress frame= 285 fps=6.8 q=26.0 size= 2117kB time=00:00:14.25 bitrate=1217.1kbits/s dup=0 drop=130
  131. 11-03 13:09:08.931 12434-12434/project.package.name D/TheTag: onProgress frame= 289 fps=6.9 q=25.0 size= 2170kB time=00:00:15.08 bitrate=1178.6kbits/s dup=0 drop=132
  132. 11-03 13:09:08.951 12434-12445/project.package.name W/art: Suspending all threads took: 6.592ms
  133. 11-03 13:09:09.452 12434-12434/project.package.name D/TheTag: onProgress frame= 292 fps=6.8 q=25.0 size= 2193kB time=00:00:15.08 bitrate=1190.9kbits/s dup=0 drop=134
  134. 11-03 13:09:09.993 12434-12434/project.package.name D/TheTag: onProgress frame= 296 fps=6.9 q=26.0 size= 2220kB time=00:00:15.08 bitrate=1206.0kbits/s dup=0 drop=136
  135. 11-03 13:09:10.563 12434-12434/project.package.name D/TheTag: onProgress frame= 300 fps=6.9 q=27.0 size= 2252kB time=00:00:15.08 bitrate=1223.4kbits/s dup=0 drop=138
  136. 11-03 13:09:11.174 12434-12434/project.package.name D/TheTag: onProgress frame= 304 fps=6.9 q=26.0 size= 2268kB time=00:00:15.20 bitrate=1222.1kbits/s dup=0 drop=140
  137. 11-03 13:09:11.574 12434-12434/project.package.name D/TheTag: onProgress frame= 307 fps=6.8 q=26.0 size= 2303kB time=00:00:15.44 bitrate=1221.2kbits/s dup=0 drop=141
  138. 11-03 13:09:12.175 12434-12434/project.package.name D/TheTag: onProgress frame= 312 fps=6.9 q=27.0 size= 2339kB time=00:00:16.08 bitrate=1191.4kbits/s dup=0 drop=143
  139. 11-03 13:09:12.806 12434-12434/project.package.name D/TheTag: onProgress frame= 316 fps=6.9 q=27.0 size= 2370kB time=00:00:16.08 bitrate=1207.0kbits/s dup=0 drop=145
  140. 11-03 13:09:13.296 12434-12434/project.package.name D/TheTag: onProgress frame= 319 fps=6.9 q=26.0 size= 2393kB time=00:00:16.08 bitrate=1219.0kbits/s dup=0 drop=147
  141. 11-03 13:09:13.787 12434-12434/project.package.name D/TheTag: onProgress frame= 323 fps=6.9 q=26.0 size= 2417kB time=00:00:16.15 bitrate=1225.8kbits/s dup=0 drop=149
  142. 11-03 13:09:14.357 12434-12434/project.package.name D/TheTag: onProgress frame= 328 fps=6.9 q=26.0 size= 2417kB time=00:00:16.40 bitrate=1207.1kbits/s dup=0 drop=150
  143. 11-03 13:09:14.938 12434-12434/project.package.name D/TheTag: onProgress frame= 332 fps=6.9 q=26.0 size= 2488kB time=00:00:17.08 bitrate=1192.8kbits/s dup=0 drop=152
  144. 11-03 13:09:15.448 12434-12434/project.package.name D/TheTag: onProgress frame= 336 fps=6.9 q=26.0 size= 2516kB time=00:00:17.08 bitrate=1206.0kbits/s dup=0 drop=154
  145. 11-03 13:09:15.999 12434-12434/project.package.name D/TheTag: onProgress frame= 339 fps=6.9 q=27.0 size= 2540kB time=00:00:17.08 bitrate=1217.7kbits/s dup=0 drop=156
  146. 11-03 13:09:16.529 12434-12434/project.package.name D/TheTag: onProgress frame= 343 fps=6.9 q=26.0 size= 2562kB time=00:00:17.15 bitrate=1224.0kbits/s dup=0 drop=158
  147. 11-03 13:09:17.040 12434-12434/project.package.name D/TheTag: onProgress frame= 347 fps=6.9 q=26.0 size= 2562kB time=00:00:17.35 bitrate=1209.9kbits/s dup=0 drop=160
  148. 11-03 13:09:17.681 12434-12434/project.package.name D/TheTag: onProgress frame= 351 fps=6.9 q=26.0 size= 2631kB time=00:00:18.09 bitrate=1191.3kbits/s dup=0 drop=162
  149. 11-03 13:09:18.191 12434-12434/project.package.name D/TheTag: onProgress frame= 355 fps=6.9 q=26.0 size= 2660kB time=00:00:18.09 bitrate=1204.4kbits/s dup=0 drop=164
  150. 11-03 13:09:18.812 12434-12434/project.package.name D/TheTag: onProgress frame= 360 fps=6.9 q=26.0 size= 2696kB time=00:00:18.09 bitrate=1220.8kbits/s dup=0 drop=166
  151. 11-03 13:09:19.363 12434-12434/project.package.name D/TheTag: onProgress frame= 364 fps=6.9 q=26.0 size= 2711kB time=00:00:18.20 bitrate=1220.2kbits/s dup=0 drop=167
  152. 11-03 13:09:19.843 12434-12434/project.package.name D/TheTag: onProgress frame= 368 fps=6.9 q=27.0 size= 2711kB time=00:00:18.40 bitrate=1207.0kbits/s dup=0 drop=169
  153. 11-03 13:09:20.494 12434-12434/project.package.name D/TheTag: onProgress frame= 372 fps=6.9 q=26.0 size= 2781kB time=00:00:19.09 bitrate=1193.3kbits/s dup=0 drop=171
  154. 11-03 13:09:21.114 12434-12434/project.package.name D/TheTag: onProgress frame= 376 fps=6.9 q=25.0 size= 2810kB time=00:00:19.09 bitrate=1205.8kbits/s dup=0 drop=173
  155. 11-03 13:09:21.635 12434-12434/project.package.name D/TheTag: onProgress frame= 379 fps=6.9 q=25.0 size= 2833kB time=00:00:19.09 bitrate=1215.5kbits/s dup=0 drop=175
  156. 11-03 13:09:22.196 12434-12434/project.package.name D/TheTag: onProgress frame= 383 fps=6.9 q=26.0 size= 2856kB time=00:00:19.15 bitrate=1221.9kbits/s dup=0 drop=176
  157. 11-03 13:09:22.716 12434-12434/project.package.name D/TheTag: onProgress frame= 387 fps=6.9 q=25.0 size= 2856kB time=00:00:19.35 bitrate=1209.3kbits/s dup=0 drop=178
  158. 11-03 13:09:23.287 12434-12434/project.package.name D/TheTag: onProgress frame= 391 fps=6.9 q=25.0 size= 2919kB time=00:00:20.09 bitrate=1189.9kbits/s dup=0 drop=181
  159. 11-03 13:09:23.847 12434-12434/project.package.name D/TheTag: onProgress frame= 396 fps=6.9 q=25.0 size= 2953kB time=00:00:20.09 bitrate=1203.6kbits/s dup=0 drop=182
  160. 11-03 13:09:24.368 12434-12434/project.package.name D/TheTag: onProgress frame= 399 fps=6.9 q=25.0 size= 2974kB time=00:00:20.09 bitrate=1212.4kbits/s dup=0 drop=184
  161. 11-03 13:09:24.888 12434-12434/project.package.name D/TheTag: onProgress frame= 402 fps=6.9 q=25.0 size= 2993kB time=00:00:20.10 bitrate=1219.9kbits/s dup=0 drop=186
  162. 11-03 13:09:25.429 12434-12434/project.package.name D/TheTag: onProgress frame= 406 fps=6.9 q=25.0 size= 2994kB time=00:00:20.30 bitrate=1208.3kbits/s dup=0 drop=188
  163. 11-03 13:09:25.950 12434-12434/project.package.name D/TheTag: onProgress frame= 411 fps=6.9 q=24.0 size= 3056kB time=00:00:21.09 bitrate=1186.4kbits/s dup=0 drop=189
  164. 11-03 13:09:26.530 12434-12434/project.package.name D/TheTag: onProgress frame= 415 fps=6.9 q=25.0 size= 3084kB time=00:00:21.09 bitrate=1197.5kbits/s dup=0 drop=191
  165. 11-03 13:09:27.081 12434-12434/project.package.name D/TheTag: onProgress frame= 419 fps=6.9 q=26.0 size= 3113kB time=00:00:21.09 bitrate=1208.9kbits/s dup=0 drop=194
  166. 11-03 13:09:27.581 12434-12434/project.package.name D/TheTag: onProgress frame= 423 fps=7.0 q=25.0 size= 3135kB time=00:00:21.15 bitrate=1214.4kbits/s dup=0 drop=196
  167. 11-03 13:09:28.142 12434-12434/project.package.name D/TheTag: onProgress frame= 428 fps=7.0 q=25.0 size= 3135kB time=00:00:21.40 bitrate=1200.2kbits/s dup=0 drop=197
  168. 11-03 13:09:28.702 12434-12434/project.package.name D/TheTag: onProgress frame= 432 fps=7.0 q=26.0 size= 3203kB time=00:00:22.10 bitrate=1187.4kbits/s dup=0 drop=199
  169. 11-03 13:09:29.343 12434-12434/project.package.name D/TheTag: onProgress frame= 436 fps=7.0 q=26.0 size= 3231kB time=00:00:22.10 bitrate=1197.6kbits/s dup=0 drop=202
  170. 11-03 13:09:29.814 12434-12434/project.package.name D/TheTag: onProgress frame= 440 fps=7.0 q=28.0 size= 3258kB time=00:00:22.10 bitrate=1207.6kbits/s dup=0 drop=203
  171. 11-03 13:09:30.334 12434-12434/project.package.name D/TheTag: onProgress frame= 444 fps=7.0 q=27.0 size= 3271kB time=00:00:22.20 bitrate=1207.1kbits/s dup=0 drop=205
  172. 11-03 13:09:30.855 12434-12434/project.package.name D/TheTag: onProgress frame= 448 fps=7.0 q=28.0 size= 3271kB time=00:00:22.40 bitrate=1196.3kbits/s dup=0 drop=207
  173. 11-03 13:09:31.415 12434-12434/project.package.name D/TheTag: onProgress frame= 452 fps=7.0 q=28.0 size= 3337kB time=00:00:23.10 bitrate=1183.3kbits/s dup=0 drop=209
  174. 11-03 13:09:31.946 12434-12434/project.package.name D/TheTag: onProgress frame= 456 fps=7.0 q=28.0 size= 3364kB time=00:00:23.10 bitrate=1192.6kbits/s dup=0 drop=211
  175. 11-03 13:09:32.537 12434-12434/project.package.name D/TheTag: onProgress frame= 460 fps=7.0 q=26.0 size= 3385kB time=00:00:23.10 bitrate=1200.4kbits/s dup=0 drop=213
  176. 11-03 13:09:33.057 12434-12434/project.package.name D/TheTag: onProgress frame= 464 fps=7.0 q=25.0 size= 3398kB time=00:00:23.20 bitrate=1200.0kbits/s dup=0 drop=214
  177. 11-03 13:09:33.568 12434-12434/project.package.name D/TheTag: onProgress frame= 467 fps=7.0 q=27.0 size= 3398kB time=00:00:23.35 bitrate=1192.3kbits/s dup=0 drop=216
  178. 11-03 13:09:34.088 12434-12434/project.package.name D/TheTag: onProgress frame= 470 fps=7.0 q=26.0 size= 3398kB time=00:00:23.50 bitrate=1184.7kbits/s dup=0 drop=218
  179. 11-03 13:09:34.609 12434-12434/project.package.name D/TheTag: onProgress frame= 474 fps=7.0 q=27.0 size= 3472kB time=00:00:24.10 bitrate=1179.9kbits/s dup=0 drop=220
  180. 11-03 13:09:35.219 12434-12434/project.package.name D/TheTag: onProgress frame= 478 fps=7.0 q=27.0 size= 3497kB time=00:00:24.10 bitrate=1188.3kbits/s dup=0 drop=221
  181. 11-03 13:09:35.720 12434-12434/project.package.name D/TheTag: onProgress frame= 481 fps=7.0 q=26.0 size= 3519kB time=00:00:24.10 bitrate=1195.7kbits/s dup=0 drop=223
  182. 11-03 13:09:36.261 12434-12434/project.package.name D/TheTag: onProgress frame= 485 fps=7.0 q=27.0 size= 3530kB time=00:00:24.25 bitrate=1192.5kbits/s dup=0 drop=225
  183. 11-03 13:09:36.851 12434-12434/project.package.name D/TheTag: onProgress frame= 489 fps=7.0 q=27.0 size= 3530kB time=00:00:24.45 bitrate=1182.7kbits/s dup=0 drop=227
  184. 11-03 13:09:37.502 12434-12434/project.package.name D/TheTag: onProgress frame= 493 fps=7.0 q=26.0 size= 3618kB time=00:00:25.10 bitrate=1180.5kbits/s dup=0 drop=229
  185. 11-03 13:09:38.012 12434-12434/project.package.name D/TheTag: onProgress frame= 498 fps=7.0 q=25.0 size= 3654kB time=00:00:25.10 bitrate=1192.0kbits/s dup=0 drop=230
  186. 11-03 13:09:38.533 12434-12434/project.package.name D/TheTag: onProgress frame= 502 fps=7.0 q=28.0 size= 3689kB time=00:00:25.10 bitrate=1203.5kbits/s dup=0 drop=232
  187. 11-03 13:09:39.134 12434-12434/project.package.name D/TheTag: onProgress frame= 506 fps=7.0 q=26.0 size= 3690kB time=00:00:25.30 bitrate=1194.7kbits/s dup=0 drop=234
  188. 11-03 13:09:39.664 12434-12434/project.package.name D/TheTag: onProgress frame= 510 fps=7.0 q=25.0 size= 3690kB time=00:00:25.50 bitrate=1185.4kbits/s dup=0 drop=236
  189. 11-03 13:09:40.285 12434-12434/project.package.name D/TheTag: onProgress frame= 514 fps=7.0 q=26.0 size= 3766kB time=00:00:26.11 bitrate=1181.5kbits/s dup=0 drop=238
  190. 11-03 13:09:40.895 12434-12434/project.package.name D/TheTag: onProgress frame= 518 fps=7.0 q=27.0 size= 3794kB time=00:00:26.11 bitrate=1190.4kbits/s dup=0 drop=240
  191. 11-03 13:09:41.496 12434-12434/project.package.name D/TheTag: onProgress frame= 522 fps=7.0 q=26.0 size= 3823kB time=00:00:26.11 bitrate=1199.4kbits/s dup=0 drop=242
  192. 11-03 13:09:42.087 12434-12434/project.package.name D/TheTag: onProgress frame= 525 fps=7.0 q=26.0 size= 3824kB time=00:00:26.25 bitrate=1193.5kbits/s dup=0 drop=244
  193. 11-03 13:09:42.557 12434-12434/project.package.name D/TheTag: onProgress frame= 529 fps=7.0 q=26.0 size= 3824kB time=00:00:26.45 bitrate=1184.4kbits/s dup=0 drop=245
  194. 11-03 13:09:43.068 12434-12434/project.package.name D/TheTag: onProgress frame= 533 fps=7.0 q=25.0 size= 3901kB time=00:00:27.11 bitrate=1178.5kbits/s dup=0 drop=247
  195. 11-03 13:09:43.678 12434-12434/project.package.name D/TheTag: onProgress frame= 538 fps=7.0 q=26.0 size= 3936kB time=00:00:27.11 bitrate=1189.3kbits/s dup=0 drop=249
  196. 11-03 13:09:44.239 12434-12434/project.package.name D/TheTag: onProgress frame= 542 fps=7.0 q=26.0 size= 3966kB time=00:00:27.11 bitrate=1198.1kbits/s dup=0 drop=251
  197. 11-03 13:09:44.820 12434-12434/project.package.name D/TheTag: onProgress frame= 546 fps=7.0 q=25.0 size= 3967kB time=00:00:27.30 bitrate=1190.5kbits/s dup=0 drop=253
  198. 11-03 13:09:45.350 12434-12434/project.package.name D/TheTag: onProgress frame= 549 fps=7.0 q=25.0 size= 3967kB time=00:00:27.45 bitrate=1184.0kbits/s dup=0 drop=255
  199. 11-03 13:09:45.751 12434-12434/project.package.name D/TheTag: onProgress frame= 552 fps=7.0 q=26.0 size= 3995kB time=00:00:27.60 bitrate=1185.8kbits/s dup=0 drop=256
  200. 11-03 13:09:46.411 12434-12434/project.package.name D/TheTag: onProgress frame= 557 fps=7.0 q=27.0 size= 4074kB time=00:00:28.11 bitrate=1187.1kbits/s dup=0 drop=258
  201. 11-03 13:09:46.912 12434-12434/project.package.name D/TheTag: onProgress frame= 561 fps=7.0 q=27.0 size= 4099kB time=00:00:28.11 bitrate=1194.3kbits/s dup=0 drop=260
  202. 11-03 13:09:47.473 12434-12434/project.package.name D/TheTag: onProgress frame= 564 fps=7.0 q=27.0 size= 4108kB time=00:00:28.20 bitrate=1193.4kbits/s dup=0 drop=262
  203. 11-03 13:09:48.123 12434-12434/project.package.name D/TheTag: onProgress frame= 568 fps=7.0 q=27.0 size= 4108kB time=00:00:28.40 bitrate=1185.0kbits/s dup=0 drop=264
  204. 11-03 13:09:48.674 12434-12434/project.package.name D/TheTag: onProgress frame= 572 fps=7.0 q=27.0 size= 4108kB time=00:00:28.60 bitrate=1176.7kbits/s dup=0 drop=265
  205. 11-03 13:09:49.194 12434-12434/project.package.name D/TheTag: onProgress frame= 576 fps=7.0 q=25.0 size= 4203kB time=00:00:29.12 bitrate=1182.3kbits/s dup=0 drop=267
  206. 11-03 13:09:49.755 12434-12434/project.package.name D/TheTag: onProgress frame= 580 fps=7.0 q=26.0 size= 4227kB time=00:00:29.12 bitrate=1189.2kbits/s dup=0 drop=269
  207. 11-03 13:09:50.396 12434-12434/project.package.name D/TheTag: onProgress frame= 584 fps=7.0 q=27.0 size= 4241kB time=00:00:29.20 bitrate=1189.7kbits/s dup=0 drop=271
  208. 11-03 13:09:50.986 12434-12434/project.package.name D/TheTag: onProgress frame= 587 fps=7.0 q=27.0 size= 4241kB time=00:00:29.35 bitrate=1183.6kbits/s dup=0 drop=273
  209. 11-03 13:09:51.487 12434-12434/project.package.name D/TheTag: onProgress frame= 591 fps=7.0 q=27.0 size= 4241kB time=00:00:29.55 bitrate=1175.6kbits/s dup=0 drop=274
  210. 11-03 13:09:52.158 12434-12434/project.package.name D/TheTag: onProgress frame= 595 fps=7.0 q=27.0 size= 4328kB time=00:00:30.12 bitrate=1177.1kbits/s dup=0 drop=276
  211. 11-03 13:09:52.718 12434-12434/project.package.name D/TheTag: onProgress frame= 599 fps=7.0 q=25.0 size= 4354kB time=00:00:30.12 bitrate=1184.0kbits/s dup=0 drop=278
  212. 11-03 13:09:53.209 12434-12434/project.package.name D/TheTag: onProgress frame= 602 fps=7.0 q=25.0 size= 4373kB time=00:00:30.12 bitrate=1189.1kbits/s dup=0 drop=280
  213. 11-03 13:09:53.769 12434-12434/project.package.name D/TheTag: onProgress frame= 606 fps=7.0 q=24.0 size= 4379kB time=00:00:30.30 bitrate=1183.9kbits/s dup=0 drop=282
  214. 11-03 13:09:54.330 12434-12434/project.package.name D/TheTag: onProgress frame= 610 fps=7.0 q=24.0 size= 4416kB time=00:00:30.50 bitrate=1186.1kbits/s dup=0 drop=284
  215. 11-03 13:09:54.340 12434-12434/project.package.name D/TheTag: onProgress frame= 610 fps=7.0 q=24.0 Lsize= 4440kB time=00:00:30.50 bitrate=1192.5kbits/s dup=0 drop=284
  216. 11-03 13:09:54.340 12434-12434/project.package.name D/TheTag: onProgress video:3706kB audio:713kB subtitle:0kB other streams:0kB global headers:0kB muxing overhead: 0.468164%
  217. 11-03 13:09:54.360 12434-12434/project.package.name D/TheTag: onProgress [libx264 @ 0xb8b788c0] frame I:3 Avg QP:22.00 size: 20893
  218. 11-03 13:09:54.360 12434-12434/project.package.name D/TheTag: onProgress [libx264 @ 0xb8b788c0] frame P:607 Avg QP:25.76 size: 6147
  219. 11-03 13:09:54.360 12434-12434/project.package.name D/TheTag: onProgress [libx264 @ 0xb8b788c0] mb I I16..4: 100.0% 0.0% 0.0%
  220. 11-03 13:09:54.360 12434-12434/project.package.name D/TheTag: onProgress [libx264 @ 0xb8b788c0] mb P I16..4: 5.5% 0.0% 0.0% P16..4: 58.7% 0.0% 0.0% 0.0% 0.0% skip:35.9%
  221. 11-03 13:09:54.360 12434-12434/project.package.name D/TheTag: onProgress [libx264 @ 0xb8b788c0] final ratefactor: 25.07
  222. 11-03 13:09:54.360 12434-12434/project.package.name D/TheTag: onProgress [libx264 @ 0xb8b788c0] coded y,uvDC,uvAC intra: 31.7% 36.6% 15.6% inter: 31.2% 21.2% 3.6%
  223. 11-03 13:09:54.360 12434-12434/project.package.name D/TheTag: onProgress [libx264 @ 0xb8b788c0] i16 v,h,dc,p: 32% 25% 30% 14%
  224. 11-03 13:09:54.370 12434-12434/project.package.name D/TheTag: onProgress [libx264 @ 0xb8b788c0] i8c dc,h,v,p: 53% 23% 18% 7%
  225. 11-03 13:09:54.370 12434-12434/project.package.name D/TheTag: onProgress [libx264 @ 0xb8b788c0] kb/s:995.19
  226. 11-03 13:09:54.370 12434-12434/project.package.name D/TheTag: onSuccess WARNING: linker: /data/data/project.package.name/files/ffmpeg has text relocations. This is wasting memory and prevents security hardening. Please fix.
  227. 11-03 13:09:54.370 12434-12434/project.package.name D/TheTag: ffmpeg version n2.4.2 Copyright (c) 2000-2014 the FFmpeg developers
  228. 11-03 13:09:54.370 12434-12434/project.package.name D/TheTag: built on Oct 7 2014 15:08:46 with gcc 4.8 (GCC)
  229. 11-03 13:09:54.370 12434-12434/project.package.name D/TheTag: configuration: --target-os=linux --cross-prefix=/home/sb/Source-Code/ffmpeg-android/toolchain-android/bin/arm-linux-androideabi- --arch=arm --cpu=cortex-a8 --enable-runtime-cpudetect --sysroot=/home/sb/Source-Code/ffmpeg-android/toolchain-android/sysroot --enable-pic --enable-libx264 --enable-libass --enable-libfreetype --enable-libfribidi --enable-fontconfig --enable-pthreads --disable-debug --disable-ffserver --enable-version3 --enable-hardcoded-tables --disable-ffplay --disable-ffprobe --enable-gpl --enable-yasm --disable-doc --disable-shared --enable-static --pkg-config=/home/sb/Source-Code/ffmpeg-android/ffmpeg-pkg-config --prefix=/home/sb/Source-Code/ffmpeg-android/build/armeabi-v7a-neon --extra-cflags='-I/home/sb/Source-Code/ffmpeg-android/toolchain-android/include -U_FORTIFY_SOURCE -D_FORTIFY_SOURCE=2 -fno-strict-overflow -fstack-protector-all -mfpu=neon' --extra-ldflags='-L/home/sb/Source-Code/ffmpeg-android/toolchain-android/lib -Wl,-z,relro -Wl,-z,now -pie' --extra-libs='-lpng -lexpat -lm' --extra-cxxflags=
  230. 11-03 13:09:54.370 12434-12434/project.package.name D/TheTag: libavutil 54. 7.100 / 54. 7.100
  231. 11-03 13:09:54.370 12434-12434/project.package.name D/TheTag: libavcodec 56. 1.100 / 56. 1.100
  232. 11-03 13:09:54.370 12434-12434/project.package.name D/TheTag: libavformat 56. 4.101 / 56. 4.101
  233. 11-03 13:09:54.370 12434-12434/project.package.name D/TheTag: libavdevice 56. 0.100 / 56. 0.100
  234. 11-03 13:09:54.370 12434-12434/project.package.name D/TheTag: libavfilter 5. 1.100 / 5. 1.100
  235. 11-03 13:09:54.370 12434-12434/project.package.name D/TheTag: libswscale 3. 0.100 / 3. 0.100
  236. 11-03 13:09:54.370 12434-12434/project.package.name D/TheTag: libswresample 1. 1.100 / 1. 1.100
  237. 11-03 13:09:54.370 12434-12434/project.package.name D/TheTag: libpostproc 53. 0.100 / 53. 0.100
  238. 11-03 13:09:54.370 12434-12434/project.package.name D/TheTag: Input #0, mov,mp4,m4a,3gp,3g2,mj2, from '/storage/emulated/0/asif.mp4':
  239. 11-03 13:09:54.370 12434-12434/project.package.name D/TheTag: Metadata:
  240. 11-03 13:09:54.370 12434-12434/project.package.name D/TheTag: major_brand : mp42
  241. 11-03 13:09:54.370 12434-12434/project.package.name D/TheTag: minor_version : 0
  242. 11-03 13:09:54.370 12434-12434/project.package.name D/TheTag: compatible_brands: isommp42
  243. 11-03 13:09:54.370 12434-12434/project.package.name D/TheTag: creation_time : 2015-10-29 06:06:11
  244. 11-03 13:09:54.370 12434-12434/project.package.name D/TheTag: Duration: 00:00:30.42, start: 0.000000, bitrate: 20352 kb/s
  245. 11-03 13:09:54.370 12434-12434/project.package.name D/TheTag: Stream #0:0(eng): Video: h264 (Constrained Baseline) (avc1 / 0x31637661), yuv420p, 1920x1080, 19956 kb/s, SAR 65536:65536 DAR 16:9, 29.40 fps, 29.42 tbr, 90k tbn, 180k tbc (default)
  246. 11-03 13:09:54.370 12434-12434/project.package.name D/TheTag: Metadata:
  247. 11-03 13:09:54.370 12434-12434/project.package.name D/TheTag: rotate : 270
  248. 11-03 13:09:54.370 12434-12434/project.package.name D/TheTag: creation_time : 2015-10-29 06:06:11
  249. 11-03 13:09:54.370 12434-12434/project.package.name D/TheTag: handler_name : VideoHandle
  250. 11-03 13:09:54.370 12434-12434/project.package.name D/TheTag: Side data:
  251. 11-03 13:09:54.370 12434-12434/project.package.name D/TheTag: displaymatrix: rotation of 90.00 degrees
  252. 11-03 13:09:54.370 12434-12434/project.package.name D/TheTag: Stream #0:1(eng): Audio: aac (mp4a / 0x6134706D), 48000 Hz, stereo, fltp, 192 kb/s (default)
  253. 11-03 13:09:54.370 12434-12434/project.package.name D/TheTag: Metadata:
  254. 11-03 13:09:54.370 12434-12434/project.package.name D/TheTag: creation_time : 2015-10-29 06:06:11
  255. 11-03 13:09:54.370 12434-12434/project.package.name D/TheTag: handler_name : SoundHandle
  256. 11-03 13:09:54.370 12434-12434/project.package.name D/TheTag: [libx264 @ 0xb8b788c0] using SAR=32/27
  257. 11-03 13:09:54.370 12434-12434/project.package.name D/TheTag: [libx264 @ 0xb8b788c0] using cpu capabilities: none!
  258. 11-03 13:09:54.370 12434-12434/project.package.name D/TheTag: [libx264 @ 0xb8b788c0] profile Constrained Baseline, level 2.1
  259. 11-03 13:09:54.370 12434-12434/project.package.name D/TheTag: [libx264 @ 0xb8b788c0] 264 - core 142 - H.264/MPEG-4 AVC codec - Copyleft 2003-2014 - http://www.videolan.org/x264.html - options: cabac=0 ref=1 deblock=0:0:0 analyse=0:0 me=dia subme=0 psy=1 psy_rd=1.00:0.00 mixed_ref=0 me_range=16 chroma_me=1 trellis=0 8x8dct=0 cqm=0 deadzone=21,11 fast_pskip=1 chroma_qp_offset=0 threads=4 lookahead_threads=4 sliced_threads=1 slices=4 nr=0 decimate=1 interlaced=0 bluray_compat=0 constrained_intra=0 bframes=0 weightp=0 keyint=250 keyint_min=20 scenecut=0 intra_refresh=0 rc=abr mbtree=0 bitrate=1000 ratetol=1.0 qcomp=0.60 qpmin=0 qpmax=69 qpstep=4 ip_ratio=1.40 aq=0
  260. 11-03 13:09:54.370 12434-12434/project.package.name D/TheTag: Output #0, mp4, to '/storage/emulated/0/output.mp4':
  261. 11-03 13:09:54.370 12434-12434/project.package.name D/TheTag: Metadata:
  262. 11-03 13:09:54.370 12434-12434/project.package.name D/TheTag: major_brand : mp42
  263. 11-03 13:09:54.370 12434-12434/project.package.name D/TheTag: minor_version : 0
  264. 11-03 13:09:54.370 12434-12434/project.package.name D/TheTag: compatible_brands: isommp42
  265. 11-03 13:09:54.370 12434-12434/project.package.name D/TheTag: encoder : Lavf56.4.101
  266. 11-03 13:09:54.370 12434-12434/project.package.name D/TheTag: Stream #0:0(eng): Video: h264 (libx264) ([33][0][0][0] / 0x0021), yuv420p, 480x320 [SAR 32:27 DAR 16:9], q=-1--1, 1000 kb/s, 20 fps, 10240 tbn, 20 tbc (default)
  267. 11-03 13:09:54.370 12434-12434/project.package.name D/TheTag: Metadata:
  268. 11-03 13:09:54.370 12434-12434/project.package.name D/TheTag: rotate : 270
  269. 11-03 13:09:54.370 12434-12434/project.package.name D/TheTag: creation_time : 2015-10-29 06:06:11
  270. 11-03 13:09:54.370 12434-12434/project.package.name D/TheTag: handler_name : VideoHandle
  271. 11-03 13:09:54.370 12434-12434/project.package.name D/TheTag: encoder : Lavc56.1.100 libx264
  272. 11-03 13:09:54.370 12434-12434/project.package.name D/TheTag: Stream #0:1(eng): Audio: aac ([64][0][0][0] / 0x0040), 48000 Hz, stereo, 192 kb/s (default)
  273. 11-03 13:09:54.370 12434-12434/project.package.name D/TheTag: Metadata:
  274. 11-03 13:09:54.370 12434-12434/project.package.name D/TheTag: creation_time : 2015-10-29 06:06:11
  275. 11-03 13:09:54.370 12434-12434/project.package.name D/TheTag: handler_name : SoundHandle
  276. 11-03 13:09:54.370 12434-12434/project.package.name D/TheTag: Stream mapping:
  277. 11-03 13:09:54.370 12434-12434/project.package.name D/TheTag: Stream #0:0 -> #0:0 (h264 (native) -> h264 (libx264))
  278. 11-03 13:09:54.370 12434-12434/project.package.name D/TheTag: Stream #0:1 -> #0:1 (copy)
  279. 11-03 13:09:54.370 12434-12434/project.package.name D/TheTag: Press [q] to st
  280. 11-03 13:09:54.370 12434-12434/project.package.name D/TheTag: onFinish
RAW Paste Data