Advertisement
Guest User

Untitled

a guest
Jan 7th, 2015
383
0
Never
Not a member of Pastebin yet? Sign Up, it unlocks many cool features!
text 7.23 KB | None | 0 0
  1. General
  2. Unique ID : 202544330379045488010757120027908593993 (0x98609E7CF691A8A9820BC0A39BBB5949)
  3. Complete name : Robbie.Williams-Live.in.Tallinn.2013.x264.BDRip.1080p-DTS.AC3-HDLine.mkv
  4. Format : Matroska
  5. Format version : Version 2
  6. File size : 9.19 GiB
  7. Duration : 1h 57mn
  8. Overall bit rate : 11.2 Mbps
  9. Movie name : Robbie.Williams-Live.in.Tallinn.2013.x264.BDRip.1080p-DTS.AC3-HDLine
  10. Encoded date : UTC 2015-01-07 20:32:59
  11. Writing application : mkvmerge v7.5.0 ('Glass Culture') 64bit built on Jan 4 2015 16:48:44
  12. Writing library : libebml v1.3.1 + libmatroska v1.4.2
  13. Attachements : Cover.jpg
  14. DURATION : 01:57:46.016000000
  15. NUMBER_OF_FRAMES : 220813
  16. NUMBER_OF_BYTES : 395696896
  17. _STATISTICS_WRITING_APP : mkvmerge v7.5.0 ('Glass Culture') 64bit built on Jan 4 2015 16:48:44
  18. _STATISTICS_WRITING_DATE_UTC : 2015-01-07 20:32:59
  19. _STATISTICS_TAGS : BPS DURATION NUMBER_OF_FRAMES NUMBER_OF_BYTES
  20.  
  21. Video
  22. ID : 1
  23. Format : AVC
  24. Format/Info : Advanced Video Codec
  25. Format profile : High@L4.1
  26. Format settings, CABAC : Yes
  27. Format settings, ReFrames : 3 frames
  28. Codec ID : V_MPEG4/ISO/AVC
  29. Duration : 1h 57mn
  30. Bit rate : 9 212 Kbps
  31. Width : 1 920 pixels
  32. Height : 1 080 pixels
  33. Display aspect ratio : 16:9
  34. Frame rate mode : Constant
  35. Frame rate : 29.970 fps
  36. Color space : YUV
  37. Chroma subsampling : 4:2:0
  38. Bit depth : 8 bits
  39. Scan type : Progressive
  40. Bits/(Pixel*Frame) : 0.148
  41. Stream size : 7.40 GiB (80%)
  42. Title : Robbie Williams: Live in Tallinn 2013
  43. Writing library : x264 core 142 r2479kMod dd79a61
  44. Encoding settings : cabac=1 / ref=4 / deblock=1:0:0 / analyse=0x3:0x133 / me=umh / subme=10 / psy=1 / fade_compensate=0.00 / psy_rd=1.00:0.00 / mixed_ref=1 / me_range=24 / chroma_me=1 / trellis=2 / 8x8dct=1 / cqm=0 / deadzone=21,11 / fast_pskip=1 / chroma_qp_offset=-2 / threads=10 / lookahead_threads=1 / sliced_threads=0 / nr=0 / decimate=1 / interlaced=0 / bluray_compat=1 / constrained_intra=0 / fgo=0 / bframes=3 / b_pyramid=1 / b_adapt=2 / b_bias=0 / direct=3 / weightb=1 / open_gop=0 / weightp=1 / keyint=300 / keyint_min=1 / scenecut=40 / intra_refresh=0 / rc_lookahead=60 / rc=2pass / mbtree=1 / bitrate=9212 / ratetol=1.0 / qcomp=0.60 / qpmin=0 / qpmax=69 / qpstep=4 / cplxblur=20.0 / qblur=0.5 / ip_ratio=1.40 / aq=1:1.00
  45. Language : English
  46. Default : Yes
  47. Forced : No
  48. DURATION : 01:57:46.025000000
  49. NUMBER_OF_FRAMES : 211769
  50. NUMBER_OF_BYTES : 8135366955
  51. _STATISTICS_WRITING_APP : mkvmerge v7.5.0 ('Glass Culture') 64bit built on Jan 4 2015 16:48:44
  52. _STATISTICS_WRITING_DATE_UTC : 2015-01-07 20:32:59
  53. _STATISTICS_TAGS : BPS DURATION NUMBER_OF_FRAMES NUMBER_OF_BYTES
  54.  
  55. Audio #1
  56. ID : 2
  57. Format : DTS
  58. Format/Info : Digital Theater Systems
  59. Mode : 16
  60. Format settings, Endianness : Big
  61. Codec ID : A_DTS
  62. Duration : 1h 57mn
  63. Bit rate mode : Constant
  64. Bit rate : 1 509 Kbps
  65. Channel(s) : 6 channels
  66. Channel positions : Front: L C R, Side: L R, LFE
  67. Sampling rate : 48.0 KHz
  68. Bit depth : 16 bits
  69. Compression mode : Lossy
  70. Stream size : 1.24 GiB (14%)
  71. Title : DTS 5.1 48KHz@1509kbps
  72. Language : English
  73. Default : Yes
  74. Forced : No
  75.  
  76. Audio #2
  77. ID : 3
  78. Format : AC-3
  79. Format/Info : Audio Coding 3
  80. Mode extension : CM (complete main)
  81. Format settings, Endianness : Big
  82. Codec ID : A_AC3
  83. Duration : 1h 57mn
  84. Bit rate mode : Constant
  85. Bit rate : 448 Kbps
  86. Channel(s) : 6 channels
  87. Channel positions : Front: L C R, Side: L R, LFE
  88. Sampling rate : 48.0 KHz
  89. Bit depth : 16 bits
  90. Compression mode : Lossy
  91. Stream size : 377 MiB (4%)
  92. Title : AC3 5.1 48KHz448kbps
  93. Language : English
  94. Default : No
  95. Forced : No
  96.  
  97. Menu
  98. 00:00:00.000 : en:01. Hey Wow Yeah Yeah
  99. 00:03:09.556 : en:02. Let Me Entertain You
  100. 00:07:55.675 : en:03. Monsoon
  101. 00:12:27.880 : en:04. Not Like The Others
  102. 00:17:32.317 : en:05. Minnie the Moocher
  103. 00:20:31.363 : en:06. Kids
  104. 00:25:45.277 : en:07. Sin Sin Sin
  105. 00:30:09.507 : en:08. Bodies
  106. 00:33:45.556 : en:09. Come Undone
  107. 00:49:56.827 : en:10. Strong
  108. 00:54:55.392 : en:11. Gospel
  109. 01:00:17.280 : en:12. Be A Boy
  110. 01:06:17.039 : en:13. Millennium
  111. 01:08:54.230 : en:14. Better Man
  112. 01:11:42.665 : en:15. Sexed Up
  113. 01:15:31.827 : en:16. Me And My Monkey
  114. 01:23:15.090 : en:17. Candy
  115. 01:27:05.186 : en:18. Hot Fudge
  116. 01:30:50.144 : en:19. Rock DJ
  117. 01:36:23.744 : en:20. Feel
  118. 01:42:49.163 : en:21. She’s The One
  119. 01:48:20.160 : en:22. Angels
Advertisement
Add Comment
Please, Sign In to add comment
Advertisement