G2A Many GEOs
SHARE
TWEET

Recording that does play

BackSeat Mar 25th, 2014 75 Never
Not a member of Pastebin yet? Sign Up, it unlocks many cool features!
  1. This recording does play:
  2.  
  3. mythffmpeg -i /home/mythtv/recordings/1070_20140324152000.mpg
  4. ffmpeg version 1.2.2 Copyright (c) 2000-2013 the FFmpeg developers
  5.   built on Jan 25 2014 08:53:57 with gcc 4.7 (Debian 4.7.2-5)
  6.   configuration: --prefix=/usr --enable-libmp3lame --enable-libfaac --enable-libx264 --enable-libvpx --enable-libxvid --enable-libfftw3 --enable-nonfree --enable-pic --extra-ldflags='-Wl,-z,relro -D_FORTIFY_SOURCE=2' --extra-cflags='-g -O2 -fstack-protector --param=ssp-buffer-size=4 -Wformat -Werror=format-security -D_FORTIFY_SOURCE=2' --extra-cxxflags='-g -O2 -fstack-protector --param=ssp-buffer-size=4 -Wformat -Werror=format-security -D_FORTIFY_SOURCE=2' --disable-ccache --disable-distcc --cc='ccache cc' --cxx='ccache g++' --disable-ffprobe --disable-ffserver --enable-runtime-cpudetect --enable-opengl-video --enable-vaapi --enable-crystalhd
  7.   libavutil      52. 18.100 / 52. 18.100
  8.   libavcodec     54. 92.100 / 54. 92.100
  9.   libavformat    54. 63.104 / 54. 63.104
  10.   libavdevice    54.  3.103 / 54.  3.103
  11.   libavfilter     3. 42.103 /  3. 42.103
  12.   libswscale      2.  2.100 /  2.  2.100
  13.   libswresample   0. 17.102 /  0. 17.102
  14.   libpostproc    52.  2.100 / 52.  2.100
  15. [dvbsub @ 0x9cb20c0] Invalid extradata, subtitle streams may be combined!
  16. [mpegts @ 0x9cada00] write_section_data: PID 0x1c24 CRC error
  17. [mpegts @ 0x9cada00] write_section_data: PID 0x1c21 CRC error
  18. [mpegts @ 0x9cada00] write_section_data: PID 0x1c25 CRC error
  19. [mpegts @ 0x9cada00] write_section_data: PID 0x1c23 CRC error
  20. [mpegts @ 0x9cada00] write_section_data: PID 0x1c22 CRC error
  21. [mpegts @ 0x9cada00] write_section_data: PID 0x1c21 CRC error
  22.     Last message repeated 2 times
  23. [mpegts @ 0x9cada00] write_section_data: PID 0x1c24 CRC error
  24. [mpegts @ 0x9cada00] write_section_data: PID 0x1c25 CRC error
  25. [mpegts @ 0x9cada00] write_section_data: PID 0x1c24 CRC error
  26. [mpegts @ 0x9cada00] max_analyze_duration 5000000 reached at 5016000 microseconds
  27. [mpegts @ 0x9cada00] Could not find codec parameters for stream 2 (Audio: mp3, 0 channels, s16p): unspecified frame size
  28. Consider increasing the value for the 'analyzeduration' and 'probesize' options
  29. [NULL @ 0x9cb1780] start time is not set in estimate_timings_from_pts
  30. [NULL @ 0x9cb3e00] start time is not set in estimate_timings_from_pts
  31. [NULL @ 0x9cb5ae0] start time is not set in estimate_timings_from_pts
  32. [NULL @ 0x9cc7d20] start time is not set in estimate_timings_from_pts
  33. [NULL @ 0x9cc99a0] start time is not set in estimate_timings_from_pts
  34. [NULL @ 0x9ccb680] start time is not set in estimate_timings_from_pts
  35. [NULL @ 0x9ccd360] start time is not set in estimate_timings_from_pts
  36. [NULL @ 0x9ccf040] start time is not set in estimate_timings_from_pts
  37. [NULL @ 0x9cd0d20] start time is not set in estimate_timings_from_pts
  38. [mpegts @ 0x9cada00] PES packet size mismatch
  39.     Last message repeated 2 times
  40. Input #0, mpegts, from '/home/mythtv/recordings/1070_20140324152000.mpg':
  41.   Duration: 00:39:47.04, start: 45487.958211, bitrate: 3700 kb/s
  42.     Stream #0:0[0x12d]: Video: mpeg2video (Main), yuv420p, 720x576 [SAR 64:45 DAR 16:9], 25 fps, 25 tbr, 90k tbn, 50 tbc
  43.     Stream #0:1[0x12e](eng): Audio: mp2, 48000 Hz, stereo, s16p, 256 kb/s
  44.     Stream #0:2[0x132](eng): Audio: mp3, 0 channels, s16p
  45.     Stream #0:3[0x131](eng): Subtitle: dvb_subtitle
  46.     Stream #0:4[0x2c6]: Data: dsmcc_b
  47.     Stream #0:5[0x2c7]: Data: dsmcc_b
  48.     Stream #0:6[0x1ce9]: Data: dsmcc_b
  49.     Stream #0:7[0x1c21]: Data: dsmcc_b
  50.     Stream #0:8[0x1c22]: Data: dsmcc_b
  51.     Stream #0:9[0x1c23]: Data: dsmcc_b
  52.     Stream #0:10[0x1c24]: Data: dsmcc_b
  53.     Stream #0:11[0x1c25]: Data: dsmcc_b
  54. At least one output file must be specified
RAW Paste Data
We use cookies for various purposes including analytics. By continuing to use Pastebin, you agree to our use of cookies as described in the Cookies Policy. OK, I Understand
Top