Ledger Nano X - The secure hardware wallet
SHARE
TWEET

Untitled

a guest Mar 31st, 2020 78 Never
Not a member of Pastebin yet? Sign Up, it unlocks many cool features!
  1. General
  2. Format                                   : Matroska
  3. Format version                           : Version 4
  4. File size                                : 2.81 GiB
  5. Duration                                 : 1 h 50 min
  6. Overall bit rate                         : 3 655 kb/s
  7. Movie name                               : Aparajito - The Unvanquished (1956) Criterion RM4K
  8. Encoded date                             : UTC 2018-10-01 23:33:50
  9. Writing application                      : mkvmerge v27.0.0 ('Metropolis') 64-bit
  10. Writing library                          : libebml v1.3.6 + libmatroska v1.4.9
  11. Cover                                    : Yes
  12. Attachments                              : cover.jpg
  13. Writing frontend                         : Natty
  14.  
  15. Video
  16. ID                                       : 1
  17. Format                                   : HEVC
  18. Format/Info                              : High Efficiency Video Coding
  19. Format profile                           : Main 10@L4@Main
  20. Codec ID                                 : V_MPEGH/ISO/HEVC
  21. Duration                                 : 1 h 50 min
  22. Bit rate                                 : 3 558 kb/s
  23. Width                                    : 1 480 pixels
  24. Height                                   : 1 080 pixels
  25. Display aspect ratio                     : 1.370
  26. Frame rate mode                          : Constant
  27. Frame rate                               : 23.976 (24000/1001) FPS
  28. Color space                              : YUV
  29. Chroma subsampling                       : 4:2:0
  30. Bit depth                                : 10 bits
  31. Bits/(Pixel*Frame)                       : 0.093
  32. Stream size                              : 2.74 GiB (97%)
  33. Writing library                          : x265 2.8+74-fd517ae68f93:[Windows][MSVC 1915][64 bit] 10bit
  34. Encoding settings                        : cpuid=1111039 / frame-threads=2 / numa-pools=4 / wpp / no-pmode / no-pme / no-psnr / no-ssim / log-level=2 / input-csp=1 / input-res=1480x1080 / interlace=0 / total-frames=158496 / level-idc=0 / high-tier=1 / uhd-bd=0 / ref=5 / no-allow-non-conformance / no-repeat-headers / annexb / no-aud / no-hrd / info / hash=0 / no-temporal-layers / open-gop / min-keyint=23 / keyint=400 / gop-lookahead=0 / bframes=8 / b-adapt=2 / b-pyramid / bframe-bias=0 / rc-lookahead=80 / lookahead-slices=4 / scenecut=40 / radl=0 / no-intra-refresh / ctu=32 / min-cu-size=8 / no-rect / no-amp / max-tu-size=16 / tu-inter-depth=1 / tu-intra-depth=1 / limit-tu=0 / rdoq-level=2 / dynamic-rd=0.00 / no-ssim-rd / signhide / no-tskip / nr-intra=0 / nr-inter=0 / no-constrained-intra / no-strong-intra-smoothing / max-merge=2 / limit-refs=3 / limit-modes / me=3 / subme=5 / merange=57 / temporal-mvp / weightp / weightb / no-analyze-src-pics / deblock=-3:0 / no-sao / no-sao-non-deblock / rd=4 / no-early-skip / rskip / no-fast-intra / no-tskip-fast / no-cu-lossless / b-intra / no-splitrd-skip / rdpenalty=0 / psy-rd=2.00 / psy-rdoq=0.00 / no-rd-refine / no-lossless / cbqpoffs=0 / crqpoffs=0 / rc=crf / crf=23.0 / qcomp=0.50 / qpstep=4 / stats-write=0 / stats-read=0 / ipratio=1.40 / pbratio=1.30 / aq-mode=1 / aq-strength=0.90 / cutree / zone-count=0 / no-strict-cbr / qg-size=32 / no-rc-grain / qpmax=69 / qpmin=0 / no-const-vbv / sar=0 / overscan=0 / videoformat=5 / range=0 / colorprim=1 / transfer=1 / colormatrix=1 / chromaloc=0 / display-window=0 / max-cll=0,0 / min-luma=0 / max-luma=1023 / log2-max-poc-lsb=8 / vui-timing-info / vui-hrd-info / slices=1 / no-opt-qp-pps / no-opt-ref-list-length-pps / no-multi-pass-opt-rps / scenecut-bias=0.05 / no-opt-cu-delta-qp / no-aq-motion / no-hdr / no-hdr-opt / no-dhdr10-opt / no-idr-recovery-sei / analysis-reuse-level=8 / scale-factor=0 / refine-intra=0 / refine-inter=0 / refine-mv=0 / no-limit-sao / ctu-info=0 / no-lowpass-dct / refine-mv-type=0 / copy-pic=1 / max-ausize-factor=1.0 / no-dynamic-refine / no-single-sei
  35. Default                                  : Yes
  36. Forced                                   : No
  37. Color range                              : Limited
  38. Color primaries                          : BT.709
  39. Transfer characteristics                 : BT.709
  40. Matrix coefficients                      : BT.709
  41.  
  42. Audio
  43. ID                                       : 2
  44. Format                                   : AAC LC
  45. Format/Info                              : Advanced Audio Codec Low Complexity
  46. Codec ID                                 : A_AAC-2
  47. Duration                                 : 1 h 50 min
  48. Bit rate                                 : 88.4 kb/s
  49. Channel(s)                               : 2 channels
  50. Channel layout                           : L R
  51. Sampling rate                            : 48.0 kHz
  52. Frame rate                               : 46.875 FPS (1024 SPF)
  53. Compression mode                         : Lossy
  54. Delay relative to video                  : 20 ms
  55. Stream size                              : 69.7 MiB (2%)
  56. Language                                 : Bengali
  57. Default                                  : No
  58. Forced                                   : No
  59.  
  60. Text
  61. ID                                       : 3
  62. Format                                   : PGS
  63. Muxing mode                              : zlib
  64. Codec ID                                 : S_HDMV/PGS
  65. Codec ID/Info                            : Picture based subtitle format used on BDs/HD-DVDs
  66. Duration                                 : 1 h 48 min
  67. Bit rate                                 : 24.2 kb/s
  68. Count of elements                        : 1516
  69. Stream size                              : 18.8 MiB (1%)
  70. Language                                 : English
  71. Default                                  : No
  72. Forced                                   : No
  73.  
  74. Menu
  75. 00:00:00.000                             : en:Chapter 01
  76. 00:02:33.528                             : en:Chapter 02
  77. 00:11:39.198                             : en:Chapter 03
  78. 00:14:28.826                             : en:Chapter 04
  79. 00:17:44.772                             : en:Chapter 05
  80. 00:21:53.854                             : en:Chapter 06
  81. 00:27:43.370                             : en:Chapter 07
  82. 00:33:00.186                             : en:Chapter 08
  83. 00:36:37.695                             : en:Chapter 09
  84. 00:44:28.374                             : en:Chapter 10
  85. 00:47:53.495                             : en:Chapter 11
  86. 00:53:49.726                             : en:Chapter 12
  87. 00:57:57.682                             : en:Chapter 13
  88. 01:01:54.127                             : en:Chapter 14
  89. 01:10:14.668                             : en:Chapter 15
  90. 01:15:24.728                             : en:Chapter 16
  91. 01:20:42.587                             : en:Chapter 17
  92. 01:27:58.982                             : en:Chapter 18
  93. 01:33:28.477                             : en:Chapter 19
  94. 01:35:27.763                             : en:Chapter 20
  95. 01:40:22.725                             : en:Chapter 21
  96. 01:43:21.028                             : en:Chapter 22
RAW Paste Data
We use cookies for various purposes including analytics. By continuing to use Pastebin, you agree to our use of cookies as described in the Cookies Policy. OK, I Understand
Top