daily pastebin goal
52%
SHARE
TWEET

Untitled

a guest Feb 17th, 2019 53 Never
Not a member of Pastebin yet? Sign Up, it unlocks many cool features!
  1. Input #0, matroska,webm, from 'm:S01E18.mkv':   Metadata:
  2.     encoder         : libebml v1.3.6 + libmatroska v1.4.9
  3.     creation_time   : 2019-01-02T12:02:39.000000Z   Duration: 00:21:28.83, start: 0.000000, bitrate: 2742 kb/s
  4.     Stream #0:0: Video: h264 (High), yuv420p(progressive), 1920x1080 [SAR 1:1 DAR 16:9], 25 fps, 25 tbr, 1k tbn, 50 tbc (default)
  5.     Metadata:
  6.       BPS-eng         : 2577777
  7.       DURATION-eng    : 00:21:28.800000000
  8.       NUMBER_OF_FRAMES-eng: 32220
  9.  
  10.       NUMBER_OF_BYTES-eng: 415279992 <--- !!!!!!!!!!!!!!!!!!!!
  11.  
  12.       _STATISTICS_WRITING_APP-eng: mkvmerge v29.0.0 ('Like It Or Not') 64-bit
  13.       _STATISTICS_WRITING_DATE_UTC-eng: 2019-01-02 12:02:39
  14.       _STATISTICS_TAGS-eng: BPS DURATION NUMBER_OF_FRAMES NUMBER_OF_BYTES
  15.     Stream #0:1(rus): Audio: aac (LC), 48000 Hz, stereo, fltp (default)
  16.     Metadata:
  17.       BPS-eng         : 162801
  18.       DURATION-eng    : 00:21:28.832000000
  19.       NUMBER_OF_FRAMES-eng: 60414
  20.  
  21.       NUMBER_OF_BYTES-eng: 26227949 <--- !!!!!!!!!!!!!!!!!!!!
  22.  
  23.       _STATISTICS_WRITING_APP-eng: mkvmerge v29.0.0 ('Like It Or Not') 64-bit
  24.       _STATISTICS_WRITING_DATE_UTC-eng: 2019-01-02 12:02:39
  25.       _STATISTICS_TAGS-eng: BPS DURATION NUMBER_OF_FRAMES NUMBER_OF_BYTES
RAW Paste Data
We use cookies for various purposes including analytics. By continuing to use Pastebin, you agree to our use of cookies as described in the Cookies Policy. OK, I Understand
 
Top