SHARE
TWEET

The.Manhattan.Project.1986.1080p.Blu-ray.Remux.AVC.DTS-HD.MA.2.0-KRaLiMaRKo

a guest Jun 14th, 2019 22 Never
Not a member of Pastebin yet? Sign Up, it unlocks many cool features!
  1. General
  2. Unique ID                                : 175207068532392246131606930116798576744 (0x83CFA76AEFF48488B0448F7BFD2FF868)
  3. Complete name                            : The.Manhattan.Project.1986.1080p.Blu-ray.Remux.AVC.DTS-HD.MA.2.0-KRaLiMaRKo.mkv
  4. Format                                   : Matroska
  5. Format version                           : Version 4
  6. File size                                : 19.5 GiB
  7. Duration                                 : 1 h 58 min
  8. Overall bit rate mode                    : Variable
  9. Overall bit rate                         : 23.6 Mb/s
  10. Movie name                               : The Manhattan Project 1986 1080p Blu-ray Remux AVC DTS-HD MA 2.0 - KRaLiMaRKo
  11. Encoded date                             : UTC 2016-06-20 07:58:56
  12. Writing application                      : mkvmerge v9.2.0 ('Photograph') 64bit
  13. Writing library                          : libebml v1.3.3 + libmatroska v1.4.4
  14.  
  15. Video
  16. ID                                       : 1
  17. Format                                   : AVC
  18. Format/Info                              : Advanced Video Codec
  19. Format profile                           : High@L4.1
  20. Format settings                          : CABAC / 4 Ref Frames
  21. Format settings, CABAC                   : Yes
  22. Format settings, Reference frames        : 4 frames
  23. Codec ID                                 : V_MPEG4/ISO/AVC
  24. Duration                                 : 1 h 58 min
  25. Bit rate mode                            : Variable
  26. Bit rate                                 : 22.0 Mb/s
  27. Maximum bit rate                         : 35.0 Mb/s
  28. Width                                    : 1 920 pixels
  29. Height                                   : 1 080 pixels
  30. Display aspect ratio                     : 16:9
  31. Frame rate mode                          : Constant
  32. Frame rate                               : 23.976 (24000/1001) FPS
  33. Standard                                 : NTSC
  34. Color space                              : YUV
  35. Chroma subsampling                       : 4:2:0
  36. Bit depth                                : 8 bits
  37. Scan type                                : Progressive
  38. Bits/(Pixel*Frame)                       : 0.442
  39. Stream size                              : 18.1 GiB (93%)
  40. Language                                 : English
  41. Default                                  : Yes
  42. Forced                                   : No
  43. Color range                              : Limited
  44. Color primaries                          : BT.709
  45. Transfer characteristics                 : BT.709
  46. Matrix coefficients                      : BT.709
  47.  
  48. Audio
  49. ID                                       : 2
  50. Format                                   : DTS XLL
  51. Format/Info                              : Digital Theater Systems
  52. Commercial name                          : DTS-HD Master Audio
  53. Codec ID                                 : A_DTS
  54. Duration                                 : 1 h 58 min
  55. Bit rate mode                            : Variable
  56. Bit rate                                 : 1 559 kb/s
  57. Channel(s)                               : 2 channels
  58. Channel layout                           : L R
  59. Sampling rate                            : 48.0 kHz
  60. Frame rate                               : 93.750 FPS (512 SPF)
  61. Bit depth                                : 16 bits
  62. Compression mode                         : Lossless
  63. Stream size                              : 1.29 GiB (7%)
  64. Language                                 : English
  65. Default                                  : Yes
  66. Forced                                   : No
  67.  
  68. Text
  69. ID                                       : 3
  70. Format                                   : PGS
  71. Codec ID                                 : S_HDMV/PGS
  72. Codec ID/Info                            : Picture based subtitle format used on BDs/HD-DVDs
  73. Duration                                 : 1 h 53 min
  74. Bit rate                                 : 30.8 kb/s
  75. Count of elements                        : 2288
  76. Stream size                              : 25.0 MiB (0%)
  77. Language                                 : English
  78. Default                                  : Yes
  79. Forced                                   : No
  80.  
  81. Menu
  82. 00:00:00.000                             : en:00:00:00.000
  83. 00:09:07.933                             : en:00:09:07.933
  84. 00:22:24.521                             : en:00:22:24.521
  85. 00:33:04.493                             : en:00:33:04.493
  86. 00:52:26.654                             : en:00:52:26.654
  87. 01:07:57.126                             : en:01:07:57.126
  88. 01:23:08.494                             : en:01:23:08.494
  89. 01:37:10.669                             : en:01:37:10.669
RAW Paste Data
We use cookies for various purposes including analytics. By continuing to use Pastebin, you agree to our use of cookies as described in the Cookies Policy. OK, I Understand
 
Top