SHARE
TWEET

A Million Little Things: Season 1 1080p WEB-DL

dirtyharrys May 9th, 2019 72 Never
Not a member of Pastebin yet? Sign Up, it unlocks many cool features!
  1. General
  2. Unique ID                   : 198017940942833986101556803117560278126 (0x94F8DE42464EACD35FF7E5FC4FB6AC6E)
  3. Complete name               : E:\A.Million.Little.Things.S01\AML-S01E01.mkv
  4. Format                      : Matroska
  5. Format version              : Version 4
  6. File size                   : 1.14 GiB
  7. Duration                    : 43 min 1 s
  8. Overall bit rate            : 3 799 kb/s
  9. Movie name                  : A Million Little Things S01E01 / A Million Little Things: Season One
  10. Description                 : Episode 01: "Pilot"
  11. Encoded date                : UTC 2019-04-29 07:34:44
  12. Writing application         : mkvmerge v30.1.0 ('Forever And More') 32-bit
  13. Writing library             : libebml v1.3.6 + libmatroska v1.4.9
  14. Copyright                   : Movies HDs 2019
  15. ARTIST                      : HarshLearner
  16.  
  17. Video
  18. ID                          : 1
  19. Format                      : HEVC
  20. Format/Info                 : High Efficiency Video Coding
  21. Format profile              : Main 10@L4@Main
  22. Codec ID                    : V_MPEGH/ISO/HEVC
  23. Duration                    : 43 min 1 s
  24. Bit rate                    : 3 363 kb/s
  25. Width                       : 1 920 pixels
  26. Height                      : 1 080 pixels
  27. Display aspect ratio        : 16:9
  28. Frame rate mode             : Constant
  29. Frame rate                  : 23.976 (24000/1001) FPS
  30. Color space                 : YUV
  31. Chroma subsampling          : 4:2:0
  32. Bit depth                   : 10 bits
  33. Bits/(Pixel*Frame)          : 0.068
  34. Stream size                 : 1.01 GiB (89%)
  35. Title                       : S01E01: Pilot
  36. Writing library             : x265 2.8+69-856f056d392e:[Windows][MSVC 1915][64 bit] 10bit
  37. Encoding settings           : cpuid=1111039 / frame-threads=3 / numa-pools=12 / wpp / no-pmode / no-pme / no-psnr / no-ssim / log-level=2 / input-csp=1 / input-res=1920x1080 / interlace=0 / total-frames=61899 / level-idc=0 / high-tier=1 / uhd-bd=0 / ref=4 / no-allow-non-conformance / no-repeat-headers / annexb / no-aud / no-hrd / info / hash=0 / no-temporal-layers / open-gop / min-keyint=23 / keyint=250 / gop-lookahead=0 / bframes=8 / b-adapt=2 / b-pyramid / bframe-bias=0 / rc-lookahead=80 / lookahead-slices=4 / scenecut=40 / radl=0 / no-intra-refresh / ctu=64 / min-cu-size=8 / rect / no-amp / max-tu-size=32 / tu-inter-depth=1 / tu-intra-depth=1 / limit-tu=0 / rdoq-level=2 / dynamic-rd=0.00 / no-ssim-rd / signhide / no-tskip / nr-intra=0 / nr-inter=0 / no-constrained-intra / no-strong-intra-smoothing / max-merge=3 / limit-refs=3 / limit-modes / me=3 / subme=3 / merange=57 / temporal-mvp / weightp / no-weightb / no-analyze-src-pics / deblock=-3:-3 / no-sao / no-sao-non-deblock / rd=4 / no-early-skip / rskip / no-fast-intra / no-tskip-fast / no-cu-lossless / no-b-intra / no-splitrd-skip / rdpenalty=0 / psy-rd=1.90 / psy-rdoq=1.65 / no-rd-refine / no-lossless / cbqpoffs=0 / crqpoffs=0 / rc=crf / crf=22.0 / qcomp=0.60 / qpstep=4 / stats-write=0 / stats-read=0 / ipratio=1.40 / pbratio=1.30 / aq-mode=3 / aq-strength=0.90 / cutree / zone-count=0 / no-strict-cbr / qg-size=32 / no-rc-grain / qpmax=69 / qpmin=0 / no-const-vbv / sar=0 / overscan=0 / videoformat=5 / range=0 / colorprim=2 / transfer=2 / colormatrix=2 / chromaloc=0 / display-window=0 / max-cll=0,0 / min-luma=0 / max-luma=1023 / log2-max-poc-lsb=8 / vui-timing-info / vui-hrd-info / slices=1 / no-opt-qp-pps / no-opt-ref-list-length-pps / no-multi-pass-opt-rps / scenecut-bias=0.05 / no-opt-cu-delta-qp / no-aq-motion / no-hdr / no-hdr-opt / no-dhdr10-opt / no-idr-recovery-sei / analysis-reuse-level=5 / scale-factor=0 / refine-intra=0 / refine-inter=0 / refine-mv=0 / no-limit-sao / ctu-info=0 / no-lowpass-dct / refine-mv-type=0 / copy-pic=1 / max-ausize-factor=1.0 / no-dynamic-refine / no-single-sei
  38. Default                     : Yes
  39. Forced                      : No
  40.  
  41. Audio
  42. ID                          : 2
  43. Format                      : AAC LC
  44. Format/Info                 : Advanced Audio Codec Low Complexity
  45. Codec ID                    : A_AAC-2
  46. Duration                    : 43 min 1 s
  47. Bit rate                    : 434 kb/s
  48. Channel(s)                  : 6 channels
  49. Channel layout              : C L R Ls Rs LFE
  50. Sampling rate               : 48.0 kHz
  51. Frame rate                  : 46.875 FPS (1024 SPF)
  52. Compression mode            : Lossy
  53. Delay relative to video     : 20 ms
  54. Stream size                 : 133 MiB (11%)
  55. Language                    : English
  56. Default                     : No
  57. Forced                      : No
  58.  
  59. Text #1
  60. ID                          : 3
  61. Format                      : UTF-8
  62. Codec ID                    : S_TEXT/UTF8
  63. Codec ID/Info               : UTF-8 Plain Text
  64. Duration                    : 42 min 53 s
  65. Bit rate                    : 88 b/s
  66. Count of elements           : 935
  67. Stream size                 : 27.9 KiB (0%)
  68. Language                    : English
  69. Default                     : No
  70. Forced                      : No
  71.  
  72. Text #2
  73. ID                          : 4
  74. Format                      : UTF-8
  75. Codec ID                    : S_TEXT/UTF8
  76. Codec ID/Info               : UTF-8 Plain Text
  77. Duration                    : 42 min 11 s
  78. Bit rate                    : 77 b/s
  79. Count of elements           : 737
  80. Stream size                 : 23.9 KiB (0%)
  81. Language                    : Spanish
  82. Default                     : Yes
  83. Forced                      : Yes
RAW Paste Data
We use cookies for various purposes including analytics. By continuing to use Pastebin, you agree to our use of cookies as described in the Cookies Policy. OK, I Understand
 
Top